.
Авторизация | Регистрация
bitok.xyz
» » Decrepit Birth - Epigenetic Triplicty (360° Visualizer) (2017) WEB-DL [H.264 / 2160p] торрент скачать бесплатно


    Decrepit Birth - Epigenetic Triplicty (360° Visualizer) (2017) WEB-DL [H.264 / 2160p] торрент скачать бесплатно

    Дата: 28-12-2019, 05:00 | .torrent скачали: 0

    Decrepit Birth - Epigenetic Triplicty (360° Visualizer) (2017) WEB-DL [H.264 / 2160p]Жанр: Technical Death Metal

    Описание

    360° Visualizer Music Video
    Продолжительность: 00: 05: 44
    Качество видео: WEB-DL H.264/2160p
    Видео: AVC/H.264, 3840 x 2160 (1.778), ~7590 kbps
    Аудио: LPCM, 2 ch, 1411.2 kbps
    Video
    ID : 1
    Format : AVC
    Format/Info : Advanced Video Codec
    Format profile : High@L5.1
    Format settings : 2 Ref Frames
    Format settings, CABAC : No
    Format settings, Reference frames : 2 frames
    Codec ID : V_MPEG4/ISO/AVC
    Duration : 5 min 44 s
    Bit rate : 7 590 kb/s
    Width : 3 840 pixels
    Height : 2 160 pixels
    Display aspect ratio : 16: 9
    Frame rate mode : Constant
    Frame rate : 29.970 (29970/1000) FPS
    Color space : YUV
    Chroma subsampling : 4: 2: 0
    Bit depth : 8 bits
    Scan type : Progressive
    Bits/(Pixel*Frame) : 0.031
    Stream size : 311 MiB (83%)
    Default : Yes
    Forced : No
    Color range : Limited
    Color primaries : BT.709
    Transfer characteristics : BT.709
    Matrix coefficients : BT.709
    Audio
    ID : 2
    Format : PCM
    Format settings : Little/Signed
    Codec ID : A_PCM/INT/LIT
    Duration : 5 min 44 s
    Bit rate mode : Constant
    Bit rate : 1 411.2 kb/s
    Channel(s) : 2 channels
    Sampling rate : 44.1 kHz
    Bit depth : 16 bits
    Stream size : 57.9 MiB (15%)
    Default : Yes
    Forced : No

    Скриншоты для ознакомления



    Все одноименные релизы в Клубе
    Время раздачи: с 08: 00 до 24: 00 (до появления первых 3-5 скачавших)

    Онлайн видео Decrepit Birth - Epigenetic Triplicty (360° Visualizer) (2017) WEB-DL [H.264



    Decrepit Birth - Epigenetic Triplicty (360° Visualizer) (2017) WEB-DL [H.264/2160p]
    Рейтинг →
     (голосов: 1, оценка 5/5, голосовать можно 1 раз )

    Другие торренты по теме:



      Комментарии (0):

      Информация

      Информация

        Посетители, находящиеся в группе Гости, не могут оставлять комментарии в данной новости.

        ↓ Меню




        ↓ Опрос

        Вы добавили сайт в закладки?
        Да
        Нет


        Популярное