.
Авторизация | Регистрация
bitok.xyz
» » Нюхач (2019) WEB-DL [H.264 / 720p-LQ] (сезон 4, серии 1-6 из 8) (обновляемая) торрент скачать бесплатно


    Нюхач (2019) WEB-DL [H.264 / 720p-LQ] (сезон 4, серии 1-6 из 8) (обновляемая) торрент скачать бесплатно

    Дата: 28-12-2019, 05:00 | .torrent скачали: 2

    Нюхач (2019) WEB-DL [H.264 / 720p-LQ] (сезон 4, серии 1-6 из 8) (обновляемая)Производство: Украина/Pronto Film, Film.UA, Foundland pictures
    Жанр: боевик, драма, криминал
    Режиссер: Артем Литвиненко, Антон Щербаков

    Актеры
    Кирилл Кяро, Иван Оганесян, Мария Аниканова, Нина Гогаева, Николай Чиндяйкин, Оксана Коляденко, Петр Крылов, Андрей Дебрин, Александр Тютин, Борис Каморзин и др.

    Описание

    Череда загадочных убийств в цирке, тело девушки, обнаруженное спустя 30 лет после смерти в заброшенном спортивном комплексе, художник, заживо замурованный в одну из своих скульптур, распыленный через вентиляцию торгового центра яд — лишь часть дел, в которых будут разбираться герои в новых сериях.

    Возраст: 16+ (зрителям, достигшим 16 лет)
    Продолжительность: ~00: 50: 00 серия
    Качество видео: WEB-DL
    Язык озвучки: русский
    Видео: AVC/H.264, 1280x720 (16: 9), ~2900 Kbps
    Аудио: AC3, 2 ch, 192 Kbps
    Общее
    Уникальный идентификатор : 316157540736698100672366327082831213439 (0xEDD9BA3C72B0BC447D9B6371D2C2737F)
    Полное имя : F: Нюхач.s04.(2019).WEB-DL (720p).by.Nicodem.Files-x25.Нюхач.s04.E01.(2019).WEB-DL (720p).by.Nicodem.Files-x.mkv
    Формат : Matroska
    Версия формата : Version 4
    Размер файла : 1, 13 Гбайт
    Продолжительность : 51 м. 16 с.
    Режим общего битрейта : Переменный
    Общий поток : 3160 Кбит/сек
    Программа кодирования : Lavf56.36.100
    Библиотека кодирования : Lavf56.36.100
    Видео
    Идентификатор : 1
    Формат : AVC
    Формат/Информация : Advanced Video Codec
    Профиль формата : Main@L3.1
    Настройки формата : CABAC/3 Ref Frames
    Параметр CABAC формата : Да
    Параметр RefFrames формата : 3 кадра
    Идентификатор кодека : V_MPEG4/ISO/AVC
    Продолжительность : 51 м. 16 с.
    Вид битрейта : Переменный
    Битрейт : 2905 Кбит/сек
    Максимальный битрейт : 4000 Кбит/сек
    Ширина : 1280 пикселей
    Высота : 720 пикселей
    Соотношение сторон : 16: 9
    Режим частоты кадров : Постоянный
    Частота кадров : 25, 000 кадров/сек
    Стандарт вещания : PAL
    Цветовое пространство : YUV
    Субдискретизация насыщенности : 4: 2: 0
    Битовая глубина : 8 бит
    Тип развёртки : Прогрессивная
    Бит/(Пиксели*Кадры) : 0.126
    Размер потока : 1, 04 Гбайт (92%)
    Default : Да
    Forced : Нет
    Цветовой диапазон : Limited
    Аудио
    Идентификатор : 2
    Формат : AC-3
    Формат/Информация : Audio Coding 3
    Коммерческое название : Dolby Digital
    Идентификатор кодека : A_AC3
    Продолжительность : 51 м. 16 с.
    Вид битрейта : Постоянный
    Битрейт : 192 Кбит/сек
    Каналы : 2 канала
    ChannelLayout : L R
    Частота : 48, 0 КГц
    Частота кадров : 31, 250 кадров/сек (1536 SPF)
    Метод сжатия : С потерями
    Задержка видео : -120 мс.
    Размер потока : 70, 4 Мбайт (6%)
    Язык : unknown
    ServiceKind/String : Complete Main
    Default : Да
    Forced : Нет

    Скриншоты для ознакомления



    Все одноименные релизы в Клубе
    Время раздачи: 24/7 (мультитрекерная раздача) (до появления первых 3-5 скачавших)

    Онлайн видео Нюхач (2019) WEB-DL [H.264



    Нюхач (2019) WEB-DL [H.264/720p-LQ] (сезон 4, серии 1-6 из 8) (обновляемая)
    Рейтинг →
     (голосов: 1, оценка 3/5, голосовать можно 1 раз )

    Другие торренты по теме:

  • Нюхач (2017) WEB-DL [H.264 / 1080p-LQ] (сезон 3, серии 1-4 из 8) (обновляемая)
  • Нюхач (2017) WEB-DL [H.264 / 720p-LQ] (сезон 3, серии 1-4 из 8) (обновляемая)
  • Нюхач (2019) WEB-DL [H.264 / 1080p-LQ (сезон 4, серии 1-6 из 8) (обновляемая)


    • Комментарии (0):

      Информация

      Информация

        Посетители, находящиеся в группе Гости, не могут оставлять комментарии в данной новости.

        ↓ Меню




        ↓ Опрос

        Вы добавили сайт в закладки?
        Да
        Нет


        Популярное