.
Авторизация | Регистрация
bitok.xyz
» » Рождественская песнь / A Christmas Carol (2019) WEBRip [H.264 / 1080p] (сезон 1, серии 1-3 из 3) HDRezka Studio торрент скачать бесплатно


    Рождественская песнь / A Christmas Carol (2019) WEBRip [H.264 / 1080p] (сезон 1, серии 1-3 из 3) HDRezka Studio торрент скачать бесплатно

    Дата: 28-12-2019, 05:00 | .torrent скачали: 3

    Рождественская песнь / A Christmas Carol (2019) WEBRip [H.264 / 1080p] (сезон 1, серии 1-3 из 3) HDRezka StudioПроизводство: Великобритания, США/FX Productions, Hardy, Son Baker, Scott Free Productions
    Жанр: фэнтези, драма
    Режиссер: Ник Мерфи

    Актеры
    Гай Пирс, Энди Серкис, Стивен Грэм, Джо Элвин, Винетт Робинсон, Ленни Раш, Джейсон Флеминг, Шарлотта Райли, Джонни Харрис, Кайван Новак

    Описание

    Сюжет повествует о скряге Эбенезере Скрудже, который давно уже разочаровался в людях, ненавидит их и признаёт только деньги и власть денег. Не любит он и людские праздники. Например, совсем не разделяет радости окружающих по поводу Рождества, посему брезгливо отклоняет приглашение на ужин от своего племянника. В последующие три ночи к Скруджу приходят три духа — прошлого, настоящего и будущего, которые помогают ему навсегда изменить отношение к жизни.

    Дата мировой премьеры: 19 декабря 2019
    Продолжительность: ~01: 00: 00 серия
    Качество видео: WEBRip
    Перевод: Многоголосый профессиональный(HDRezka Studio)
    Субтитры: русские (на надписи)
    Видео: AVC/H.264, 1920x1080 (16: 9), ~9550 Kbps
    Аудио: AC3, 2 ch, 192 Kbps - русский
    Общее
    Уникальный идентификатор : 198543419773672984745780740733274598340 (0x955E125D92C7BA101C690F9D3586ABC4)
    Полное имя : F: A Christmas Carol (2019)A.Christmas.Carol.S01E01.WEBRip.mkv
    Формат : Matroska
    Версия формата : Version 4
    Размер файла : 4, 16 Гбайт
    Продолжительность : 1 ч. 1 м.
    Режим общего битрейта : Переменный
    Общий поток : 9747 Кбит/сек
    Дата кодирования : UTC 2019-12-26 10: 16: 18
    Программа кодирования : mkvmerge v28.2.0 (\'The Awakening\') 64-bit
    Библиотека кодирования : libebml v1.3.6 + libmatroska v1.4.9
    Видео
    Идентификатор : 1
    Формат : AVC
    Формат/Информация : Advanced Video Codec
    Профиль формата : High@L4.1
    Настройки формата : CABAC/1 Ref Frames
    Параметр CABAC формата : Да
    Параметр RefFrames формата : 1 кадр
    Идентификатор кодека : V_MPEG4/ISO/AVC
    Продолжительность : 1 ч. 1 м.
    Вид битрейта : Переменный
    Битрейт : 9553 Кбит/сек
    Максимальный битрейт : 2000 Кбит/сек
    Ширина : 1920 пикселей
    Высота : 1080 пикселей
    Соотношение сторон : 16: 9
    Режим частоты кадров : Постоянный
    Частота кадров : 23, 976 (24000/1001) кадра/сек
    Цветовое пространство : YUV
    Субдискретизация насыщенности : 4: 2: 0
    Битовая глубина : 8 бит
    Тип развёртки : Прогрессивная
    Бит/(Пиксели*Кадры) : 0.192
    Размер потока : 4, 08 Гбайт (98%)
    Default : Да
    Forced : Нет
    Аудио
    Идентификатор : 2
    Формат : AC-3
    Формат/Информация : Audio Coding 3
    Коммерческое название : Dolby Digital
    Идентификатор кодека : A_AC3
    Продолжительность : 1 ч. 1 м.
    Вид битрейта : Постоянный
    Битрейт : 192 Кбит/сек
    Каналы : 2 канала
    ChannelLayout : L R
    Частота : 48, 0 КГц
    Частота кадров : 31, 250 кадров/сек (1536 SPF)
    Метод сжатия : С потерями
    Размер потока : 83, 9 Мбайт (2%)
    Язык : Russian
    ServiceKind/String : Complete Main
    Default : Да
    Forced : Нет


    Онлайн видео Рождественская песнь



    Рождественская песнь/A Christmas Carol (2019) WEBRip [H.264/1080p] (сезон 1, серии 1-3 из 3) HDRezka Studio
    Рейтинг →
     (голосов: 1, оценка 3/5, голосовать можно 1 раз )

    Другие торренты по теме:

  • Духи Рождества / Рождественская история / Рождественская песнь / A Christmas Carol (1997) DVDRip


    • Комментарии (0):

      Информация

      Информация

        Посетители, находящиеся в группе Гости, не могут оставлять комментарии в данной новости.

        ↓ Меню




        ↓ Опрос

        Вы добавили сайт в закладки?
        Да
        Нет


        Популярное