.
Авторизация | Регистрация
bitok.xyz
» » Нюхач (2019) WEB-DLRip (сезон 4, серии 1-8 из 8) торрент скачать бесплатно


    Нюхач (2019) WEB-DLRip (сезон 4, серии 1-8 из 8) торрент скачать бесплатно

    Дата: 28-12-2019, 05:00 | .torrent скачали: 1

    Нюхач (2019) WEB-DLRip (сезон 4, серии 1-8 из 8)Производство: Украина/Pronto Film, Film.UA, Foundland pictures
    Жанр: боевик, драма, криминал
    Режиссер: Артем Литвиненко, Антон Щербаков

    Актеры
    Кирилл Кяро, Иван Оганесян, Мария Аниканова, Нина Гогаева, Николай Чиндяйкин, Оксана Коляденко, Петр Крылов, Андрей Дебрин, Александр Тютин, Борис Каморзин и др.

    Описание

    Череда загадочных убийств в цирке, тело девушки, обнаруженное спустя 30 лет после смерти в заброшенном спортивном комплексе, художник, заживо замурованный в одну из своих скульптур, распыленный через вентиляцию торгового центра яд — лишь часть дел, в которых будут разбираться герои в новых сериях.

    Возраст: 16+ (зрителям, достигшим 16 лет)
    Релиз от: Алехаndr
    Продолжительность: ~00: 50: 00 серия
    Качество видео: WEB-DLRip
    Язык озвучки: русский
    Видео: Xvid, 720x400 (16: 9), ~1540 Kbps
    Аудио: AC3, 2 ch, 192 Kbps
    Общее
    Полное имя : D: Нюхач. Сезон 4 (2019).by.АлехаndrНюхач. Серия 1.by.Алехаndr.avi
    Формат : AVI
    Формат/Информация : Audio Video Interleave
    Размер файла : 637 Мбайт
    Продолжительность : 51 м. 7 с.
    Общий поток : 1741 Кбит/сек
    Программа кодирования : Lavf58.29.100
    Видео
    Идентификатор : 0
    Формат : MPEG-4 Visual
    Профиль формата : Advanced Simple@L5
    Настройки формата : BVOP2
    Параметр BVOP формата : 2
    Параметр QPel формата : Нет
    Параметр GMC формата : Без точки перехода
    Параметр матрицы формата : Default (MPEG)
    Идентификатор кодека : XVID
    Идентификатор кодека/Подсказка : XviD
    Продолжительность : 51 м. 7 с.
    Битрейт : 1539 Кбит/сек
    Ширина : 720 пикселей
    Высота : 400 пикселей
    Соотношение сторон : 16: 9
    Частота кадров : 25, 000 кадров/сек
    Цветовое пространство : YUV
    Субдискретизация насыщенности : 4: 2: 0
    Битовая глубина : 8 бит
    Тип развёртки : Прогрессивная
    Метод сжатия : С потерями
    Бит/(Пиксели*Кадры) : 0.214
    Размер потока : 563 Мбайт (88%)
    Библиотека кодирования : XviD 67
    Аудио
    Идентификатор : 1
    Формат : AC-3
    Формат/Информация : Audio Coding 3
    Коммерческое название : Dolby Digital
    Идентификатор кодека : 2000
    Продолжительность : 51 м. 7 с.
    Вид битрейта : Постоянный
    Битрейт : 192 Кбит/сек
    Каналы : 2 канала
    ChannelLayout : L R
    Частота : 48, 0 КГц
    Частота кадров : 31, 250 кадров/сек (1536 SPF)
    Битовая глубина : 16 бит
    Метод сжатия : С потерями
    Размер потока : 70, 2 Мбайт (11%)
    Выравнивание : Соединение по промежуткам
    Продолжительность промежутка : 32 мс. (0, 80 видеокадр)
    ServiceKind/String : Complete Main

    Скриншоты для ознакомления



    Все одноименные релизы в Клубе
    Время раздачи: 24/7 (круглосуточно) (до появления первых 3-5 скачавших)

    Онлайн видео Нюхач (2019) WEB



    Нюхач (2019) WEB-DLRip (сезон 4, серии 1-8 из 8)
    Рейтинг →
     (голосов: 1, оценка 4/5, голосовать можно 1 раз )

    Другие торренты по теме:

  • Нюхач (2015) WEB-DLRip [H.264 / 1080p-LQ] (сезон 2, серии 1 из 8) (обновляемая) скачать через торрент бесплатно
  • Нюхач (2015) WEB-DLRip [H.264 / 720p-LQ] (сезон 2, серии 1 из 8) (обновляемая) скачать через торрент бесплатно
  • Нюхач (2015) WEB-DLRip (сезон 2, серии 1- из 8) (обновляемая) скачать через торрент бесплатно


    • Комментарии (0):

      Информация

      Информация

        Посетители, находящиеся в группе Гости, не могут оставлять комментарии в данной новости.

        ↓ Меню




        ↓ Опрос

        Вы добавили сайт в закладки?
        Да
        Нет


        Популярное