.
Авторизация | Регистрация
bitok.xyz
» » Патруль (2015-2019) SATRip (сезон 1-5, серии 1-100 из 100) торрент скачать бесплатно


    Патруль (2015-2019) SATRip (сезон 1-5, серии 1-100 из 100) торрент скачать бесплатно

    Дата: 28-12-2019, 05:00 | .torrent скачали: 0

    Патруль (2015-2019) SATRip (сезон 1-5, серии 1-100 из 100)Производство: Казахстан/Телеканал НТК
    Жанр: комедия
    Режиссер: Ануар Матжанов, Олжас Ибраев

    Актеры
    Мейржан Туребаев, Рустем Омаров, Едиль Анарбаев, Мейрхан Шерниязов, Медет Аманбаев, Адилжан Шомбалов, Леонид Пивоваров

    Описание

    Кто такие полицейские? Кто-то говорит, что они ленивые бездельники, а кто-то заявляет, что полицейские сами нарушают закон. Но на самом деле они занимаются важным делом — защитой мирных граждан от преступников! Серик и Берик патрулируют целый район, и эта работа приносит им удовольствие! А когда есть любимая работа… можно и пообедать подольше!
    Продолжительность: ~00: 25: 00 серия
    Качество видео: SATRip
    Язык озвучки: русский
    Видео: Xvid, 720x400, ~2000 Kbps
    Аудио: MP3, 2 ch, 192 Kbps
    Общее
    Полное имя : E: Новая папкаPatryl\'Sezon_02Patrul.S02E13.avi
    Формат : AVI
    Формат/Информация : Audio Video Interleave
    Размер файла : 400 Мбайт
    Продолжительность : 25 м. 20 с.
    Общий поток : 2205 Кбит/сек
    Программа кодирования : Lavf56.36.100
    Видео
    Идентификатор : 0
    Формат : xvid
    Идентификатор кодека : xvid
    Продолжительность : 25 м. 20 с.
    Битрейт : 2001 Кбит/сек
    Ширина : 720 пикселей
    Высота : 400 пикселей
    Соотношение сторон : 16: 9
    Частота кадров : 25, 000 кадров/сек
    Тип развёртки : Прогрессивная
    Бит/(Пиксели*Кадры) : 0.278
    Размер потока : 363 Мбайт (91%)
    Аудио
    Идентификатор : 1
    Формат : MPEG Audio
    Версия формата : Version 1
    Профиль формата : Layer 3
    Настройки формата : Joint stereo/MS Stereo
    Идентификатор кодека : 55
    Идентификатор кодека/Подсказка : MP3
    Продолжительность : 25 м. 20 с.
    Вид битрейта : Постоянный
    Битрейт : 192 Кбит/сек
    Каналы : 2 канала
    Частота : 44, 1 КГц
    Метод сжатия : С потерями
    Размер потока : 34, 8 Мбайт (9%)
    Выравнивание : Соединение по промежуткам
    Продолжительность промежутка : 26 мс. (0, 65 видеокадр)
    Время предзагрузки промежутка : 78 мс.
    Библиотека кодирования : LAME3.99.5

    Скриншоты для ознакомления



    Все одноименные релизы в Клубе
    Время раздачи: 24/7 (до появления первых 3-5 скачавших)

    Онлайн видео Патруль (2015



    Патруль (2015-2019) SATRip (сезон 1-5, серии 1-100 из 100)
    Рейтинг →
     (голосов: 1, оценка 4/5, голосовать можно 1 раз )

    Другие торренты по теме:

  • Ночной патруль (1957) SATRip
  • Щенячий патруль / PAW Patrol (2014 - 2015) SATRip (Сезон 2, Серии 1-22 из 26)


    • Комментарии (0):

      Информация

      Информация

        Посетители, находящиеся в группе Гости, не могут оставлять комментарии в данной новости.

        ↓ Меню




        ↓ Опрос

        Вы добавили сайт в закладки?
        Да
        Нет


        Популярное