.
Авторизация | Регистрация
bitok.xyz
» » Мистер Робот / Mr. Robot (2019) WEB-DLRip [H.264 / 1080p-LQ] (сезон 4, серии 1-13 из 13) [IdeaFilm] [AD] торрент скачать бесплатно


    Мистер Робот / Mr. Robot (2019) WEB-DLRip [H.264 / 1080p-LQ] (сезон 4, серии 1-13 из 13) [IdeaFilm] [AD] торрент скачать бесплатно

    Дата: 28-12-2019, 05:00 | .torrent скачали: 0

    Мистер Робот / Mr. Robot (2019) WEB-DLRip [H.264 / 1080p-LQ] (сезон 4, серии 1-13 из 13) [IdeaFilm] [AD]Производство: США/Universal Cable Productions
    Жанр: Триллер, драма, криминал
    Режиссер: Сэм Эсмейл, Джим МакКэй, Триша Брок

    Актеры
    Рами Малек, Кристиан Слэйтер, Карли Чаикин, Портия Даблдэй, Мартин Вальстрём, Майкл Кристофер, Грэйс Гаммер, Стефани Корнелиуссен, Б.Д. Вонг, Сунита Мани

    Описание

    История молодого программиста Эллиота, страдающего социофобией и решившего, что единственный приемлемый для него способ взаимодействия с людьми — это профессия хакера. Таким образом, он быстро оказывается в том самом месте, где пересекаются интересы его работодателя — фирмы, занимающейся кибербезопасностью, — и подпольных организаций, которые пытаются его завербовать с целью обрушения самых могучих американских корпораций.

    Возраст: 18+ (зрителям, достигшим 18 лет. запрещено для детей)
    Продолжительность: ~ 01: 00: 00 серия
    Качество видео: WEB-DLRip (1080p)
    Перевод: Многоголосый профессиональный (IdeaFilm)
    Субтитры: Отсутствуют
    Реклама: Присутствуют голосовые и текстовые вставки рекламы.
    Видео: AVC/H.264, 1920x1080, ~ 5 972 Kbps
    Аудио #1: AC3, 6 ch, 384 Kbps (Русский)
    Аудио #2: AC3, 6 ch, 640 Kbps (Английский)
    General
    Unique ID : 195883806624691999019585039985329038380 (0x935DD95031878C55BAE91F541ABBE42C)
    Complete name : D: Kino DMr.Robot.S04.WEB-DLRip.1080p.IdeaFilmMr.Robot.S04E08.WEB-DLRip.1080p.IdeaFilm.mkv
    Format : Matroska
    Format version : Version 4
    File size : 2.22 GiB
    Duration : 45 min 25 s
    Overall bit rate mode : Variable
    Overall bit rate : 6 990 kb/s
    Movie name : The.Flash.2014.S06E06.1080p.HDTV.x264-LucidTV
    Encoded date : UTC 2019-11-25 17: 02: 50
    Writing application : mkvmerge v7.8.0 (\'River Man\') 32bit built on Apr 3 2015 12: 11: 22
    Writing library : libebml v1.3.1 + libmatroska v1.4.2
    Video
    ID : 1
    Format : AVC
    Format/Info : Advanced Video Codec
    Format profile : Main@L4.1
    Format settings : CABAC/2 Ref Frames
    Format settings, CABAC : Yes
    Format settings, Reference fra : 2 frames
    Format settings, GOP : M=3, N=23
    Codec ID : V_MPEG4/ISO/AVC
    Duration : 45 min 25 s
    Bit rate mode : Variable
    Bit rate : 5 972 kb/s
    Maximum bit rate : 12.0 Mb/s
    Width : 1 920 pixels
    Height : 1 080 pixels
    Display aspect ratio : 16: 9
    Frame rate mode : Constant
    Frame rate : 23.976 (24000/1001) FPS
    Color space : YUV
    Chroma subsampling : 4: 2: 0
    Bit depth : 8 bits
    Scan type : Progressive
    Bits/(Pixel*Frame) : 0.120
    Stream size : 1.89 GiB (85%)
    Language : English
    Default : Yes
    Forced : No
    Audio #1
    ID : 2
    Format : AC-3
    Format/Info : Audio Coding 3
    Commercial name : Dolby Digital
    Codec ID : A_AC3
    Duration : 45 min 25 s
    Bit rate mode : Constant
    Bit rate : 384 kb/s
    Channel(s) : 6 channels
    Channel layout : L R C LFE Ls Rs
    Sampling rate : 48.0 kHz
    Frame rate : 31.250 FPS (1536 SPF)
    Compression mode : Lossy
    Stream size : 125 MiB (5%)
    Language : Russian
    Service kind : Complete Main
    Default : Yes
    Forced : No
    Audio #2
    ID : 3
    Format : AC-3
    Format/Info : Audio Coding 3
    Codec ID : A_AC3
    Duration : 44 min 52 s
    Bit rate : 640 kb/s
    Channel(s) : 6 channels
    Sampling rate : 48.0 kHz
    Frame rate : 31.250 FPS (1536 SPF)
    Compression mode : Lossy
    Stream size : 205 MiB (9%)
    Language : English
    Default : No
    Forced : No
    Сезон 4
    2019, эпизодов: 13
    Эпизод 1
    401 Unauthorized
    6 октября 2019
    Эпизод 2
    402 Payment Required
    13 октября 2019
    Эпизод 3
    403 Forbidden
    20 октября 2019
    Эпизод 4
    404 Not Found
    27 октября 2019
    Эпизод 5
    405 Method Not Allowed
    3 ноября 2019
    Эпизод 6
    406 Not Acceptable
    10 ноября 2019
    Эпизод 7
    407 Proxy Authentication Required
    17 ноября 2019
    Эпизод 8
    408 Request Timeout
    24 ноября 2019
    Эпизод 9
    409 Conflict
    1 декабря 2019
    Эпизод 10
    410 Gone
    8 декабря 2019
    Эпизод 11
    eXit
    15 декабря 2019
    Эпизод 12
    Эпизод #4.12
    22 декабря 2019
    Эпизод 13
    Эпизод #4.13
    22 декабря 2019

    Скриншоты для ознакомления



    Все одноименные релизы в Клубе
    Время раздачи: 24/7/365(6) (до появления первых 3-5 скачавших)

    Онлайн видео Мистер Робот



    Мистер Робот/Mr. Robot (2019) WEB-DLRip [H.264/1080p-LQ] (сезон 4, серии 1-13 из 13) [IdeaFilm] [AD]
    Рейтинг →
     (голосов: 1, оценка 5/5, голосовать можно 1 раз )

    Другие торренты по теме:

  • Мистер Робот / Mr. Robot (2015) WEB-DL [H.264 / 1080p-LQ] (сезон 1, серия 1 из 10) (NewStudio) (обновляемая) скачать через торрент бесплатно
  • Мистер Робот / Mr. Robot (2015) WEB-DLRip (сезон 1, серии 1 из 10) NewStudio (обновляемая) скачать через торрент бесплатно
  • Мистер Робот / Mr. Robot (2015) WEB-DL [H.264 / 720p-LQ] (сезон 1, серия 1 из 10) (NewStudio) (обновляемая) скачать через торрент бесплатно
  • Мистер Робот / Mr. Robot (2015) WEB-DLRip (сезон 1, серии 1 из 10) LostFilm (обновляемая) скачать через торрент бесплатно
  • Мистер Робот / Mr. Robot (2015) HDTVRip [H.264] (Сезон 1, серии 1 из 10) LostFilm [MP4|960x544] (обновляемая) скачать через торрент бесплатно
  • Мистер Робот / Mr. Robot (2015) WEB-DLRip [H.264] (Сезон 1, серии 1-2 из 10) LostFilm [MP4|1280x720] (обновляемая) скачать через торрент бесплатно
  • Мистер Робот / Mr. Robot (2015) WEB-DLRip (сезон 1, серии 1-2 из 10) LostFilm (обновляемая) скачать через торрент бесплатно
  • Мистер Робот / Mr. Robot (2015) WEB-DL [H.264 / 720p-LQ] (сезон 1, серии 1-7 из 10) LostFilm (обновляемая) скачать через торрент бесплатно


    • Комментарии (0):

      Информация

      Информация

        Посетители, находящиеся в группе Гости, не могут оставлять комментарии в данной новости.

        ↓ Меню




        ↓ Опрос

        Вы добавили сайт в закладки?
        Да
        Нет


        Популярное

        Полицейский с Рублёвки. Новогодний беспредел 2 (2019) CamRip [AD]

        (скачиваний: 1815)
        Властелин колец: Трилогия / The Lord of the Rings: Trilogy (2001,2002,2003) BDRip [H.264] [Extended Editions] скачать через торрент бесплатно

        (скачиваний: 663)
        Властелин колец / The Lord of the Rings (2001,2002,2003) BDRip [Extended Edition] [H.264 / 1080p-LQ] [Hi10P]

        (скачиваний: 655)
        Начало / Inception (2010) BDRip [H.265 / 1080p]

        (скачиваний: 629)
        Властелин колец / The Lord of the Rings (2001,2002,2003) BDRip [1080p] [Extended Edition] [Трилогия]

        (скачиваний: 607)
        Квартирник НТВ у Маргулиса. Новогодний выпуск (31.12.2019) WEB-DL [H.264 / 1080p-LQ]

        (скачиваний: 452)
        Каникулы off-line (2018) WEBRip

        (скачиваний: 432)
        Хоббит: Трилогия / The Hobbit: Trilogy (2012, 2013, 2014) BDRip [H.265 / 1080p-LQ] [10-bit] [Расширенная версия]

        (скачиваний: 396)
        Властелин колец / The Lord of the Rings (2001,2002,2003) BDRip [1080p] [Extended Edition] [Трилогия] скачать через торрент бесплатно

        (скачиваний: 264)
        Во все тяжкие / Breaking Bad (2008-2013) BDRip [H.264 / 1080p] (сезон 1-5, серии 1-62 из 62) Кубик в Кубе, LostFilm скачать через торрент бесплатно

        (скачиваний: 252)