.
Авторизация | Регистрация
bitok.xyz
» » Ведьмак / The Witcher (2019) WEB-DL [H.265 / 2160p] [HDR, 10-bit] (сезон 1, серии 1-8 из 8) [Пифагор] торрент скачать бесплатно


    Ведьмак / The Witcher (2019) WEB-DL [H.265 / 2160p] [HDR, 10-bit] (сезон 1, серии 1-8 из 8) [Пифагор] торрент скачать бесплатно

    Дата: 28-12-2019, 05:00 | .torrent скачали: 5

    Ведьмак / The Witcher (2019) WEB-DL [H.265 / 2160p] [HDR, 10-bit] (сезон 1, серии 1-8 из 8) [Пифагор]Производство: Польша, США/NetFlix, Pioneer Stilking Films, Platige Image, Sean Daniel Company
    Жанр: Фэнтези, боевик, драма, приключения
    Режиссер: Алик Сахаров, Шарлотта Брандстром, Алекс Гарсиа Лопес

    Актеры
    Генри Кавилл, Фрейя Аллан, Джои Бэти, МайАнна Бёринг, Том Кэнтон, Аня Чалотра, Имон Фэррен, Бьерн Хлинур Харальдссон, Адам Леви, Джоди Мэй

    Описание

    Все события в этом телесериале происходят в придуманном мире, в котором обитают всевозможные чудовищные существа, а также очень опасные монстры. Наш главный герой -- ведьмак, охотившийся за кровожадными оборотнями, представляющих угрозу для жизни людей. В раннем детстве он пережил мутацию, в результате чего получил лучшие боевые навыки: повышенную силу, быструю реакцию. Основной его задачей было за оплату уничтожать кровожадных обитателей. Но другой раз он шел наперекор своим нанимателям. Геральт оставлял в живых драконов, которых почти не осталось на земле; монстров обладающих высоким интеллектом и вообще старался не вмешиваться в политические интриги чародеев и королей. Но однажды он все таки был вовлечен в противостояния между королевствами, чтобы защитить совсем юную княжну, на которой были сосредоточены интересы больших людей. По предсказанию только ее будущий потомок мог решить судьбу всего человечества. Цири тоже хорошо владела мечом и обладала магией, вот им двоим и пришлось преодолевать все тяжелые испытания, встречающиеся на их пути.

    Дата мировой премьеры: 20 декабря 2019
    Продолжительность: ~ 01: 00: 00 серия
    Качество видео: WEB-DL (2160p)
    Перевод: Дублированный (Пифагор)
    Субтитры: Русские, английские
    Видео: HEVC/H.265, 3840x1920, ~17.4 Mbps
    Аудио #01 : E-AC3+Atmos, 6 ch, 768 Kbps (Русский)
    Аудио #02 : E-AC3+Atmos, 6 ch, 768 Kbps (Английский)
    General
    Unique ID : 33164897483523786477689408540464002058 (0x18F353B0CE7F925EB8AF4D52870E340A)
    Complete name : D: Kino DThe.Witcher.2019.S01.WEB-DL.2160p.HEVC.HDR.seleZenThe.Witcher.S01E02.2019.NF.WEB-DL.2160p.HEVC.HDR.seleZen.mkv
    Format : Matroska
    Format version : Version 4
    File size : 8.01 GiB
    Duration : 1 h 0 min
    Overall bit rate : 18.8 Mb/s
    Movie name : The Witcher S01E02 2019 from селезень
    Encoded date : UTC 2019-12-25 19: 51: 50
    Writing application : mkvmerge v40.0.0 (\'Old Town Road + Pony\') 64-bit
    Writing library : libebml v1.3.9 + libmatroska v1.5.2
    Video
    ID : 1
    Format : HEVC
    Format/Info : High Efficiency Video Coding
    Format profile : Main10@L5.1@High
    HDR format : SMPTE ST 2086, HDR10 compatible
    Codec ID : V_MPEGH/ISO/HEVC
    Duration : 1 h 0 min
    Bit rate : 17.4 Mb/s
    Width : 3 840 pixels
    Height : 1 920 pixels
    Display aspect ratio : 2.000
    Frame rate mode : Constant
    Frame rate : 24.000 FPS
    Color space : YUV
    Chroma subsampling : 4: 2: 0
    Bit depth : 10 bits
    Bits/(Pixel*Frame) : 0.098
    Stream size : 7.36 GiB (92%)
    Writing library : x265 3.2+9-971180b100f8: WindowsMSVC 192364 bit 10bit
    Encoding settings : cpuid=1111039/frame-threads=4/numa-pools=28, 0/wpp/no-pmode/no-pme/no-psnr/no-ssim/log-level=2/input-csp=1/input-res=3840x1920/interlace=0/total-frames=0/level-idc=51/high-tier=1/uhd-bd=0/ref=5/no-allow-non-conformance/repeat-t_heads/annexb/no-aud/no-hrd/info/hash=0/no-temporal-layers/open-gop/min-keyint=24/keyint=250/gop-lookahead=0/bframes=8/b-adapt=2/b-pyramid/bframe-bias=0/rc-lookahead=40/lookahead-slices=0/scenecut=40/radl=0/no-splice/no-intra-refresh/ctu=64/min-cu-size=8/no-rect/no-amp/max-tu-size=32/tu-inter-depth=3/tu-intra-depth=3/limit-tu=0/rdoq-level=1/dynamic-rd=0.00/no-ssim-rd/signhide/no-tskip/nr-intra=0/nr-inter=0/no-constrained-intra/strong-intra-smoothing/max-merge=5/limit-refs=0/no-limit-modes/me=3/subme=4/merange=57/temporal-mvp/no-frame-dup/no-hme/weightp/weightb/no-analyze-src-pics/deblock=0: 0/no-sao/no-sao-non-deblock/rd=6/selective-sao=0/no-early-skip/rskip/no-fast-intra/no-tskip-fast/no-cu-lossless/b-intra/no-splitrd-skip/rdpenalty=0/psy-rd=4.00/psy-rdoq=8.00/no-rd-refine/no-lossless/cbqpoffs=0/crqpoffs=0/rc=crf/crf=15.0/qcomp=0.60/qpstep=4/stats-write=0/stats-read=0/vbv-maxrate=160000/vbv-bufsize=160000/vbv-init=0.9/crf-max=0.0/crf-min=0.0/ipratio=1.40/pbratio=1.30/aq-mode=2/aq-strength=1.00/cutree/zone-count=0/no-strict-cbr/qg-size=32/no-rc-grain/qpmax=69/qpmin=0/no-const-vbv/sar=0/overscan=0/videoformat=5/range=0/colorprim=9/transfer=16/colormatrix=9/chromaloc=0/display-window=0/master-display=G(13250, 34500)B(7500, 3000)R(34000, 16000)WP(15635, 16450)L(10000000, 1)/cll=4099, 100/min-luma=0/max-luma=1023/log2-max-poc-lsb=8/vui-timing-info/vui-hrd-info/slices=1/no-opt-qp-pps/no-opt-ref-list-length-pps/no-multi-pass-opt-rps/scenecut-bias=0.05/no-opt-cu-delta-qp/no-aq-motion/hdr/hdr-opt/no-dhdr10-opt/no-idr-recovery-sei/analysis-reuse-level=5/scale-factor=0/refine-intra=0/refine-inter=0/refine-mv=1/refine-ctu-distortion=0/no-limit-sao/ctu-info=0/no-lowpass-dct/refine-analysis-type=0/copy-pic=1/max-ausize-factor=1.0/no-dynamic-refine/no-single-sei/no-hevc-aq/no-svt/no-field/qp-adaptation-range=1.00
    Language : English
    Default : Yes
    Forced : No
    Color range : Limited
    Color primaries : BT.2020
    Transfer characteristics : PQ
    Matrix coefficients : BT.2020 non-constant
    Mastering display color primar : Display P3
    Mastering display luminance : min: 0.0001 cd/m2, max: 1000 cd/m2
    Maximum Content Light Level : 4099 cd/m2
    Maximum Frame-Average Light Le : 100 cd/m2
    Audio #1
    ID : 2
    Format : E-AC-3 JOC
    Format/Info : Enhanced AC-3 with Joint Object Coding
    Commercial name : Dolby Digital Plus with Dolby Atmos
    Codec ID : A_EAC3
    Duration : 1 h 0 min
    Bit rate mode : Constant
    Bit rate : 768 kb/s
    Channel(s) : 6 channels
    Channel layout : L R C LFE Ls Rs
    Sampling rate : 48.0 kHz
    Frame rate : 31.250 FPS (1536 SPF)
    Compression mode : Lossy
    Stream size : 335 MiB (4%)
    Title : Dub
    Language : Russian
    Service kind : Complete Main
    Default : Yes
    Forced : Yes
    Complexity index : 16
    Number of dynamic objects : 15
    Bed channel count : 1 channel
    Bed channel configuration : LFE
    Audio #2
    ID : 3
    Format : E-AC-3 JOC
    Format/Info : Enhanced AC-3 with Joint Object Coding
    Commercial name : Dolby Digital Plus with Dolby Atmos
    Codec ID : A_EAC3
    Duration : 1 h 0 min
    Bit rate mode : Constant
    Bit rate : 768 kb/s
    Channel(s) : 6 channels
    Channel layout : L R C LFE Ls Rs
    Sampling rate : 48.0 kHz
    Frame rate : 31.250 FPS (1536 SPF)
    Compression mode : Lossy
    Stream size : 335 MiB (4%)
    Title : Original
    Language : English
    Service kind : Complete Main
    Default : No
    Forced : No
    Complexity index : 16
    Number of dynamic objects : 15
    Bed channel count : 1 channel
    Bed channel configuration : LFE
    Text #1
    ID : 4
    Format : UTF-8
    Codec ID : S_TEXT/UTF8
    Codec ID/Info : UTF-8 Plain Text
    Duration : 59 min 48 s
    Bit rate : 0 b/s
    Count of elements : 5
    Stream size : 177 Bytes (0%)
    Title : Forced
    Language : Russian
    Default : Yes
    Forced : Yes
    Text #2
    ID : 5
    Format : UTF-8
    Codec ID : S_TEXT/UTF8
    Codec ID/Info : UTF-8 Plain Text
    Duration : 59 min 48 s
    Bit rate : 71 b/s
    Count of elements : 668
    Stream size : 31.2 KiB (0%)
    Title : Full
    Language : Russian
    Default : No
    Forced : No
    Text #3
    ID : 6
    Format : UTF-8
    Codec ID : S_TEXT/UTF8
    Codec ID/Info : UTF-8 Plain Text
    Duration : 58 min 20 s
    Bit rate : 51 b/s
    Count of elements : 766
    Stream size : 21.8 KiB (0%)
    Title : SDH
    Language : English
    Default : No
    Forced : No

    Скриншоты для ознакомления



    Все одноименные релизы в Клубе
    Время раздачи: 24/7/365(6) (до появления первых 3-5 скачавших)

    Онлайн видео Ведьмак



    Ведьмак/The Witcher (2019) WEB-DL [H.265/2160p] [HDR, 10-bit] (сезон 1, серии 1-8 из 8) [Пифагор]
    Рейтинг →
     (голосов: 1, оценка 3/5, голосовать можно 1 раз )

    Другие торренты по теме:

  • Ведьмак 3: Дикая охота / The Witcher 3: Wild Hunt (2014) WEBRip [En]
  • The Witcher 2: Assassins of Kings / Ведьмак 2: Убийцы Королей (2011) GamePlayRip
  • The Witcher 2: Assassins of Kings / Ведьмак 2: Убийцы королей (2011) [Ru / Multi] (3.4.4.1) RePack R.G. Catalyst [Enhanced Edition] скачать через торрент бесплатно
  • Ведьмак 3: Дикая Охота / The Witcher 3: Wild Hunt (2015) [Ru / En] (1.03 / dlc) Repack R.G. Games скачать через торрент бесплатно
  • The Witcher 3: Wild Hunt / Ведьмак 3: Дикая Охота [Patch] (2015) (1.06) Official GOG скачать через торрент бесплатно
  • The Witcher 3: Wild Hunt / Ведьмак 3: Дикая Охота (2015) [Ru / Multi] (1.06 / dlc) License GOG скачать через торрент бесплатно
  • The Witcher 3: Wild Hunt / Ведьмак 3: Дикая Охота (2015) [Ru / Multi] (1.06 / dlc) Repack =nemos= скачать через торрент бесплатно
  • The Witcher / Ведьмак (2007) [Ru / Multi] (1.5.0.1304) Repack october2 [Enhanced Edition: Directors Cut / Полное издание] (GOG) скачать через торрент бесплатно


    • Комментарии (0):

      Информация

      Информация

        Посетители, находящиеся в группе Гости, не могут оставлять комментарии в данной новости.

        ↓ Меню




        ↓ Опрос

        Вы добавили сайт в закладки?
        Да
        Нет


        Популярное