.
Авторизация | Регистрация
bitok.xyz
» » Затерянные в космосе / Lost in Space (2018) WEBRip (сезон 1, серии 1-10 из 10) LostFilm торрент скачать бесплатно


    Затерянные в космосе / Lost in Space (2018) WEBRip (сезон 1, серии 1-10 из 10) LostFilm торрент скачать бесплатно

    Дата: 28-12-2019, 05:00 | .torrent скачали: 4

    Затерянные в космосе / Lost in Space (2018) WEBRip (сезон 1, серии 1-10 из 10) LostFilmПроизводство: США/Legendary Television, Synthesis Entertainment, Applebox Pictures
    Жанр: фантастика, драма, детектив, приключения, семейный
    Режиссер: Тим Соутэм, Стивен Серджик, Нил Маршалл

    Актеры
    Молли Паркер, Тоби Стивенс, Макс Дженкинс, Тейлор Расселл, Мина Сандвол, Игнасио Серричио, Паркер Поузи, Брайан Стил, Раза Джеффри, Амелия Берстин и др.

    Описание

    2046 год. Космический корабль теряется в космосе и терпит крушение на планете на расстоянии нескольких световых лет от планируемого места назначения. Его обитатели, семья Робинсонов, вынуждены приспособиться и выжить в новых условиях.

    Продолжительность: ~01: 00: 00 серия
    Качество видео: WEBRip
    Перевод: Многоголосый, профессиональный -LostFilm
    Субтитры: русские, английские
    Видео: XviD, 720x352, ~1465 kbps
    Аудио 1: MP3, 2 ch, 128 kbps — русский
    Аудио 2: MP3, 2 ch, 128 kbps — английский
    Общее
    Полное имя : D: Затерянные в космосе (сезон любимого сериала 1) Lost in Space (2018) WEBRip - LostFilmLost.in.Space.S01E01.WEBRip.Rus.Eng.DV.LostFilm.avi
    Формат : AVI
    Формат/Информация : Audio Video Interleave
    Размер файла : 788 Мбайт
    Продолжительность : 1 ч. 3 м.
    Общий поток : 1731 Кбит/сек
    Название фильма : Lost.in.Space.S01E01.WEBRip.Rus.Eng.DV.LostFilm/NNM-Club
    Программа кодирования : VirtualDubModRus 1.5.10.2 (build 2542/release)
    Библиотека кодирования : VirtualDubMod build 2542/release
    Видео
    Идентификатор : 0
    Формат : MPEG-4 Visual
    Профиль формата : Advanced Simple@L5
    Настройки формата : BVOP2
    Параметр BVOP формата : 2
    Параметр QPel формата : Нет
    Параметр GMC формата : Без точки перехода
    Параметр матрицы формата : Default (H.263)
    Идентификатор кодека : XVID
    Идентификатор кодека/Подсказка : XviD
    Продолжительность : 1 ч. 3 м.
    Битрейт : 1465 Кбит/сек
    Ширина : 720 пикселей
    Высота : 352 пикселя
    Соотношение сторон : 2, 045
    Частота кадров : 23, 976 (24000/1001) кадра/сек
    Цветовое пространство : YUV
    Субдискретизация насыщенности : 4: 2: 0
    Битовая глубина : 8 бит
    Тип развёртки : Прогрессивная
    Метод сжатия : С потерями
    Бит/(Пиксели*Кадры) : 0.241
    Размер потока : 666 Мбайт (85%)
    Заголовок : Rip from DriverV for NNM-Club
    Библиотека кодирования : XviD 64
    Аудио #1
    Идентификатор : 1
    Формат : MPEG Audio
    Версия формата : Version 1
    Профиль формата : Layer 3
    Настройки формата : Joint stereo/MS Stereo
    Идентификатор кодека : 55
    Идентификатор кодека/Подсказка : MP3
    Продолжительность : 1 ч. 2 м.
    Вид битрейта : Постоянный
    Битрейт : 128 Кбит/сек
    Каналы : 2 канала
    Частота : 48, 0 КГц
    Метод сжатия : С потерями
    Размер потока : 57, 5 Мбайт (7%)
    Выравнивание : Соединение по промежуткам
    Продолжительность промежутка : 42 мс. (1, 01 видеокадр)
    Время предзагрузки промежутка : 504 мс.
    Аудио #2
    Идентификатор : 2
    Формат : MPEG Audio
    Версия формата : Version 1
    Профиль формата : Layer 3
    Настройки формата : Joint stereo/MS Stereo
    Идентификатор кодека : 55
    Идентификатор кодека/Подсказка : MP3
    Продолжительность : 1 ч. 2 м.
    Вид битрейта : Постоянный
    Битрейт : 128 Кбит/сек
    Каналы : 2 канала
    Частота : 48, 0 КГц
    Метод сжатия : С потерями
    Размер потока : 57, 5 Мбайт (7%)
    Выравнивание : Соединение по промежуткам
    Продолжительность промежутка : 42 мс. (1, 01 видеокадр)
    Время предзагрузки промежутка : 504 мс.


    Онлайн видео Затерянные в космосе



    Затерянные в космосе/Lost in Space (2018) WEBRip (сезон 1, серии 1-10 из 10) LostFilm
    Рейтинг →
     (голосов: 1, оценка 3/5, голосовать можно 1 раз )

    Другие торренты по теме:

  • Затерянные в космосе / Lost in Space (1998) BDRip [H.264]
  • Затерянные в космосе / Lost in Space (2018) WEBRip [H.264 / 1080p-LQ] (сезон 1, серии 1-5 из 10) OMSKBIRD (обновляемая) [AD]
  • Затерянные в космосе / Lost in Space (2018) WEBRip [H.264 / 1080p-LQ] (сезон 1, серии 1-10 из 10) IdeaFilm [AD]
  • Затерянные в космосе / Lost in Space (2018) WEBRip [H.264 / 1080p-LQ] (сезон 1, серии 1-10 из 10) TVShows
  • Затерянные в космосе / Lost in Space (2019) WEBRip [H.264 / 1080p-LQ] (сезон 2, серии 1 из 10) (обновляемая) HDRezka Studio
  • Затерянные в космосе / Lost in Space (2019) WEBRip [H.264 / 1080p-LQ] (сезон 2, серии 1 из 10) LakeFilms [AD] (обновляемая)
  • Затерянные в космосе / Lost in Space (2018) WEB-DL [H.265 / 2160p] [HDR, 10-bit] (сезон 1, серии 1-10 из 10) [Пифагор]
  • Затерянные в космосе / Lost in Space (2019) WEBRip (сезон 2, серии 1 из 10) LostFilm (обновляемая)


    • Комментарии (0):

      Информация

      Информация

        Посетители, находящиеся в группе Гости, не могут оставлять комментарии в данной новости.

        ↓ Меню




        ↓ Опрос

        Вы добавили сайт в закладки?
        Да
        Нет


        Популярное