.
Авторизация | Регистрация
bitok.xyz
» » Четыре юных сыщика / TKKG (2019) HDRip [MVO] торрент скачать бесплатно


    Четыре юных сыщика / TKKG (2019) HDRip [MVO] торрент скачать бесплатно

    Дата: 29-12-2019, 05:00 | .torrent скачали: 0

    Четыре юных сыщика / TKKG (2019) HDRip [MVO]Производство: Германия/Warner Bros. Film Productions Germany, Kundschafter Filmproduktion
    Жанр: Комедия, криминал, приключения, семейный
    Режиссер: Роберт Тальхайм

    Актеры
    Ilyes Moutaoukkil, Lorenzo Germeno, Мануэль Сантос Гельке, Emma-Louise Schimpf, Май Дуонг Кьеу, Philipp Laude, Антуан Моно мл., Trish Osmond, Милан Пешель, Тристан Пюттер

    Описание

    Тим и Уилл обычные немецкие школьники, которые стали закадычными друзьями в первый же учебный день в школе. Когда у одного из них похищают отца, мальчики делают всё, чтобы его найти, а помогает им в этом дочь полицейского.

    Дата мировой премьеры: 6 июня 2019
    Продолжительность: 01: 35: 55
    Качество видео: HDRip
    Перевод: Многоголосый закадровый, профессиональный (Синема УС)
    Субтитры: Отсутствуют
    Видео: XviD, 720x304, ~1780 Kbps
    Аудио: AC-3, 2 ch, 384 Kbps
    Общее
    Полное имя : D: NNMЧетыре юных сыщикаTKKG.2019.HDRip.avi
    Формат : AVI
    Формат/Информация : Audio Video Interleave
    Профиль формата : OpenDML
    Размер файла : 1, 46 Гбайт
    Продолжительность : 1 ч. 35 м.
    Общий поток : 2176 Кбит/сек
    Программа кодирования : Lavf57.41.100
    Авторское право : ВВ®В
    Видео
    Идентификатор : 0
    Формат : MPEG-4 Visual
    Профиль формата : Simple@L5
    Настройки формата : BVOP2
    Параметр BVOP формата : 2
    Параметр QPel формата : Нет
    Параметр GMC формата : Без точки перехода
    Параметр матрицы формата : Default (H.263)
    Режим смешивания : Сжатый битовый поток
    Идентификатор кодека : XVID
    Идентификатор кодека/Подсказка : XviD
    Продолжительность : 1 ч. 35 м.
    Битрейт : 1780 Кбит/сек
    Ширина : 720 пикселей
    Высота : 304 пикселя
    Соотношение сторон : 2, 40: 1
    Частота кадров : 24, 000 кадра/сек
    Цветовое пространство : YUV
    Субдискретизация насыщенности : 4: 2: 0
    Битовая глубина : 8 бит
    Тип развёртки : Прогрессивная
    Метод сжатия : С потерями
    Бит/(Пиксели*Кадры) : 0.339
    Размер потока : 1, 19 Гбайт (82%)
    Заголовок : Germany (Warner Bros. Film Productions Germany, Kundschafter Filmproduktion)
    Библиотека кодирования : XviD 67
    Аудио
    Идентификатор : 1
    Формат : AC-3
    Формат/Информация : Audio Coding 3
    Коммерческое название : Dolby Digital
    Идентификатор кодека : 2000
    Продолжительность : 1 ч. 35 м.
    Вид битрейта : Постоянный
    Битрейт : 384 Кбит/сек
    Каналы : 2 канала
    ChannelLayout : L R
    Частота : 48, 0 КГц
    Частота кадров : 31, 250 кадров/сек (1536 SPF)
    Битовая глубина : 16 бит
    Метод сжатия : С потерями
    Размер потока : 263 Мбайт (18%)
    Выравнивание : Соединение по промежуткам
    Продолжительность промежутка : 32 мс. (0, 77 видеокадр)
    Заголовок : DVO (Cinema US)
    ServiceKind/String : Complete Main

    Скриншоты для ознакомления



    Все одноименные релизы в Клубе Время раздачи: 24/7 (до появления первых 3-5 скачавших)

    Онлайн видео Четыре юных сыщика



    Четыре юных сыщика/TKKG (2019) HDRip [MVO]
    Рейтинг →
     (голосов: 1, оценка 4/5, голосовать можно 1 раз )

    Другие торренты по теме:

  • Странное варево / Четыре комнаты / Strange brew / Four Rooms (1995) VHSRip скачать через торрент бесплатно
  • Четыре встречи с Владимиром Высоцким (1987) DVDRip
  • Битлз: Четыре плюс один (Пятый в квартете) / Backbeat (1994) DVDRemux
  • Четыре минуты / Vier Minuten (2006) BDRip [720p] скачать через торрент бесплатно
  • Гражданин четыре / Citizenfour (2014) WEB-DLRip [H.264][EN]
  • Вера Брежнева - Четыре времени желаний (2015) [MP3|320 кб / с]<Pop> скачать через торрент бесплатно
  • Стив Бланк | Четыре шага к озарению. Стратегии создания успешных стартапов (2014) [PDF, DOC, EPUB] скачать через торрент бесплатно
  • Четыре комнаты / Four Rooms (1995) BDRip [H.264] скачать через торрент бесплатно


    • Комментарии (0):

      Информация

      Информация

        Посетители, находящиеся в группе Гости, не могут оставлять комментарии в данной новости.

        ↓ Меню




        ↓ Опрос

        Вы добавили сайт в закладки?
        Да
        Нет


        Популярное

        Полицейский с Рублёвки. Новогодний беспредел 2 (2019) CamRip [AD]

        (скачиваний: 2276)
        Властелин колец: Трилогия / The Lord of the Rings: Trilogy (2001,2002,2003) BDRip [H.264] [Extended Editions] скачать через торрент бесплатно

        (скачиваний: 672)
        Властелин колец / The Lord of the Rings (2001,2002,2003) BDRip [Extended Edition] [H.264 / 1080p-LQ] [Hi10P]

        (скачиваний: 661)
        Начало / Inception (2010) BDRip [H.265 / 1080p]

        (скачиваний: 642)
        Властелин колец / The Lord of the Rings (2001,2002,2003) BDRip [1080p] [Extended Edition] [Трилогия]

        (скачиваний: 608)
        Квартирник НТВ у Маргулиса. Новогодний выпуск (31.12.2019) WEB-DL [H.264 / 1080p-LQ]

        (скачиваний: 456)
        Каникулы off-line (2018) WEBRip

        (скачиваний: 438)
        Хоббит: Трилогия / The Hobbit: Trilogy (2012, 2013, 2014) BDRip [H.265 / 1080p-LQ] [10-bit] [Расширенная версия]

        (скачиваний: 398)
        Властелин колец / The Lord of the Rings (2001,2002,2003) BDRip [1080p] [Extended Edition] [Трилогия] скачать через торрент бесплатно

        (скачиваний: 277)
        Во все тяжкие / Breaking Bad (2008-2013) BDRip [H.264 / 1080p] (сезон 1-5, серии 1-62 из 62) Кубик в Кубе, LostFilm скачать через торрент бесплатно

        (скачиваний: 256)