.
Авторизация | Регистрация
bitok.xyz
» » Солнце тоже звезда / The Sun Is Also a Star (2019) WEB-DLRip [MVO] [AD] торрент скачать бесплатно


    Солнце тоже звезда / The Sun Is Also a Star (2019) WEB-DLRip [MVO] [AD] торрент скачать бесплатно

    Дата: 29-12-2019, 05:00 | .torrent скачали: 0

    Солнце тоже звезда / The Sun Is Also a Star (2019) WEB-DLRip [MVO] [AD]Производство: США/Alloy Entertainment, Metro-Goldwyn-Mayer (MGM), Warner Bros.
    Жанр: Драма, мелодрама
    Режиссер: Ри Руссо-Янг

    Актеры
    Яра Шахиди, Аней Ли, Чарльз Мелтон, Джон Легуизамо, Гбенга Акиннагбе, Мириам А. Химэн, Джордан Уильямс, Джейк Чои, Кеонг Сим, Кэти Шим

    Описание

    В один волшебный день в знойном бурлящем жизнью Нью-Йорке сталкиваются и влюбляются отправляющийся в колледж романтик Даниэль Бэ и прагматичная девушка с Ямайки Наташа Кингсли. Искры сразу вспыхивают между двумя незнакомцами, которые никогда бы не встретились, если бы судьба легонько не подтолкнула их. Но будет ли она достаточно благосклонна, чтобы превратить невезучих молодых людей в счастливо влюбленных? У Наташи осталось всего несколько часов — похоже, этот день станет последним для нее в Нью-Йорке. Она пытается предотвратить депортацию своей семьи столь же отчаянно, как борется с зарождающимися чувствами к Даниэлю, который столь же усердно пытается её убедить, что они созданы друг для друга.

    Дата мировой премьеры: 16 мая 2019
    Продолжительность: 01: 39: 58
    Качество видео: WEB-DLRip
    Перевод: Многоголосый закадровый, любительский (MUZOBOZ)
    Субтитры: Отсутствуют
    Реклама: Присутствует баннер.
    Видео: XviD, 720x304, ~1653 Kbps
    Аудио: AC-3, 2 ch, 256 Kbps
    Общее
    Полное имя : D: NNMСолнце тоже звездаThe.Sun.Is.Also.a.Star.2019.WEB-DLRip.avi
    Формат : AVI
    Формат/Информация : Audio Video Interleave
    Профиль формата : OpenDML
    Размер файла : 1, 34 Гбайт
    Продолжительность : 1 ч. 39 м.
    Общий поток : 1921 Кбит/сек
    Видео
    Идентификатор : 0
    Формат : MPEG-4 Visual
    Профиль формата : Advanced Simple@L5
    Настройки формата : BVOP2/Custom Matrix
    Параметр BVOP формата : 2
    Параметр QPel формата : Нет
    Параметр GMC формата : Без точки перехода
    Параметр матрицы формата : Выборочная
    Идентификатор кодека : XVID
    Идентификатор кодека/Подсказка : XviD
    Продолжительность : 1 ч. 39 м.
    Битрейт : 1653 Кбит/сек
    Ширина : 720 пикселей
    Высота : 304 пикселя
    Соотношение сторон : 2, 35: 1
    Частота кадров : 23, 976 (24000/1001) кадра/сек
    Цветовое пространство : YUV
    Субдискретизация насыщенности : 4: 2: 0
    Битовая глубина : 8 бит
    Тип развёртки : Прогрессивная
    Метод сжатия : С потерями
    Бит/(Пиксели*Кадры) : 0.315
    Размер потока : 1, 15 Гбайт (86%)
    Библиотека кодирования : XviD 1.2.1 (UTC 2008-12-04)
    Аудио
    Идентификатор : 1
    Формат : AC-3
    Формат/Информация : Audio Coding 3
    Коммерческое название : Dolby Digital
    Идентификатор кодека : 2000
    Продолжительность : 1 ч. 39 м.
    Вид битрейта : Постоянный
    Битрейт : 256 Кбит/сек
    Каналы : 2 канала
    ChannelLayout : L R
    Частота : 48, 0 КГц
    Частота кадров : 31, 250 кадров/сек (1536 SPF)
    Метод сжатия : С потерями
    Размер потока : 183 Мбайт (13%)
    Выравнивание : Соединение по промежуткам
    Продолжительность промежутка : 32 мс. (0, 77 видеокадр)
    ServiceKind/String : Complete Main

    Скриншоты для ознакомления



    Все одноименные релизы в Клубе Время раздачи: 24/7 (до появления первых 3-5 скачавших)

    Онлайн видео Солнце тоже звезда



    Солнце тоже звезда/The Sun Is Also a Star (2019) WEB-DLRip [MVO] [AD]
    Рейтинг →
     (голосов: 1, оценка 3/5, голосовать можно 1 раз )

    Другие торренты по теме:

  • Никола Юн | Солнце тоже звезда (2016) [PDF, FB2, EPUB, MOBI]


    • Комментарии (0):

      Информация

      Информация

        Посетители, находящиеся в группе Гости, не могут оставлять комментарии в данной новости.

        ↓ Меню




        ↓ Опрос

        Вы добавили сайт в закладки?
        Да
        Нет


        Популярное