.
Авторизация | Регистрация
bitok.xyz
» » Джокер / Joker (2019) BDRemux [H.264 / 1080p] торрент скачать бесплатно


    Джокер / Joker (2019) BDRemux [H.264 / 1080p] торрент скачать бесплатно

    Дата: 29-12-2019, 05:00 | .torrent скачали: 2

    Джокер / Joker (2019) BDRemux [H.264 / 1080p]Производство: США, Канада/Warner Bros., Village Roadshow Pictures, DC Entertainment, DC Comics, 22 Indiana Pictures
    Жанр: Триллер, драма, криминал
    Режиссер: Тодд Филлипс
    Продюсер: Брэдли Купер, Тодд Филлипс, Эмма Тиллинджер Коскофф

    Актеры
    Хоакин Феникс, Роберт Де Ниро, Зази Битц, Фрэнсис Конрой, Бретт Каллен, Шей Уигэм, Билл Кэмп, Гленн Флешлер, Ли Гилл, Джош Пэйс

    Описание
    Готэм, начало 1980-х годов. Комик Артур Флек живет с больной матерью, которая с детства учит его ходить с улыбкой. Пытаясь нести в мир хорошее и дарить людям радость, Артур сталкивается с человеческой жестокостью и постепенно приходит к выводу, что этот мир получит от него не добрую улыбку, а ухмылку злодея Джокера.

    Возраст: 18+ Зрителям, достигшим 18 лет
    Рейтинг MPAA: R Лицам до 17 обязательно присутствие взрослых
    Дата мировой премьеры: 31 августа 2019
    Дата российской премьеры: 3 октября 2019, Каро-Премьер
    Цифровой релиз: 27 декабря 2019, Warner Bros.
    Релиз от: NNMClub
    Продолжительность: 02: 01: 49
    Качество видео: BDRemux 1080p
    Перевод: Дублированный (Лицензия BD EUR), Многоголосый, Авторский (одноголосый)
    Субтитры: Русские (Forced x2, full x2), английские (full, SDH)
    Видео: AVC/H.264, 1920x1080, 19.8 Mbps, 23.976 fps
    Аудио 1 : AC-3, 6 ch, 448 Kbps - Русский (DUB, BD EUR)
    Аудио 2 : AC-3, 2 ch, 192 Kbps - Русский (MVO, HDRezka Studio)
    Аудио 3 : DTS-HD MA, 8 ch, 5179 Kbps - Русский (AVO, М. Чадов)
    Аудио 4 : AC-3, 2.0 ch, 160 Kbps - Украинский (DUB, iTunes)
    Аудио 5 : TrueHD+Atmos, 8 ch, 3819 Kbps - Английский
    Аудио 6 : AC-3, 6 ch, 640 Kbps - Английский
    General
    Unique ID : 165300367068097702469829583452048685918 (0x7C5BB1532DE5618007EF7F8CA0DB7B5E)
    Complete name : /Volumes/Promise 2/Joker.BDRemux.1080p.pk.mkv
    Format : Matroska
    Format version : Version 4
    File size : 25.8 GiB
    Duration : 2h 1mn
    Overall bit rate mode : Variable
    Overall bit rate : 30.3 Mbps
    Movie name : Joker BDRemux 1080p pk
    Encoded date : UTC 2019-12-27 15: 18: 34
    Writing application : mkvmerge v41.0.0 (\'Smarra\') 64-bit
    Writing library : libebml v1.3.9 + libmatroska v1.5.2
    Video
    ID : 1
    Format : AVC
    Format/Info : Advanced Video Codec
    Format profile : High@L4.1
    Format settings : CABAC/4 Ref Frames
    Format settings, CABAC : Yes
    Format settings, ReFrames : 4 frames
    Codec ID : V_MPEG4/ISO/AVC
    Duration : 2h 1mn
    Bit rate mode : Variable
    Bit rate : 19.8 Mbps
    Maximum bit rate : 22.0 Mbps
    Width : 1 920 pixels
    Height : 1 080 pixels
    Display aspect ratio : 16: 9
    Frame rate mode : Constant
    Frame rate : 23.976 (24000/1001) fps
    Color space : YUV
    Chroma subsampling : 4: 2: 0
    Bit depth : 8 bits
    Scan type : Progressive
    Bits/(Pixel*Frame) : 0.398
    Stream size : 16.8 GiB (65%)
    Language : English
    Default : Yes
    Forced : No
    Audio #1
    ID : 2
    Format : AC-3
    Format/Info : Audio Coding 3
    Commercial name : Dolby Digital
    Codec ID : A_AC3
    Duration : 2h 1mn
    Bit rate mode : Constant
    Bit rate : 448 Kbps
    Channel(s) : 6 channels
    Channel layout : L R C LFE Ls Rs
    Sampling rate : 48.0 KHz
    Frame rate : 31.250 fps (1536 SPF)
    Compression mode : Lossy
    Stream size : 390 MiB (1%)
    Title : Russian Dub Blu-ray CEE
    Language : Russian
    Service kind : Complete Main
    Default : Yes
    Forced : No
    Audio #2
    ID : 3
    Format : AC-3
    Format/Info : Audio Coding 3
    Commercial name : Dolby Digital
    Codec ID : A_AC3
    Duration : 2h 1mn
    Bit rate mode : Constant
    Bit rate : 192 Kbps
    Channel(s) : 2 channels
    Channel layout : L R
    Sampling rate : 48.0 KHz
    Frame rate : 31.250 fps (1536 SPF)
    Compression mode : Lossy
    Stream size : 167 MiB (1%)
    Title : Russian MVO HDRezka Studio
    Language : Russian
    Service kind : Complete Main
    Default : No
    Forced : No
    Audio #3
    ID : 4
    Format : DTS XLL
    Format/Info : Digital Theater Systems
    Commercial name : DTS-HD Master Audio
    Codec ID : A_DTS
    Duration : 2h 1mn
    Bit rate mode : Variable
    Bit rate : 5 179 Kbps
    Channel(s) : 8 channels
    Channel layout : C L R LFE Lb Rb Lss Rss
    Sampling rate : 48.0 KHz
    Frame rate : 93.750 fps (512 SPF)
    Bit depth : 24 bits
    Compression mode : Lossless
    Stream size : 4.41 GiB (17%)
    Title : Russian AVO Chadov
    Language : Russian
    Default : No
    Forced : No
    Audio #4
    ID : 5
    Format : AC-3
    Format/Info : Audio Coding 3
    Commercial name : Dolby Digital
    Codec ID : A_AC3
    Duration : 2h 1mn
    Bit rate mode : Constant
    Bit rate : 160 Kbps
    Channel(s) : 2 channels
    Channel layout : L R
    Sampling rate : 48.0 KHz
    Frame rate : 31.250 fps (1536 SPF)
    Compression mode : Lossy
    Stream size : 139 MiB (1%)
    Title : Ukrainian Dub iTunes
    Language : Ukrainian
    Service kind : Complete Main
    Default : No
    Forced : No
    Audio #5
    ID : 6
    Format : MLP FBA 16-ch
    Format/Info : Meridian Lossless Packing FBA with 16-channel presentation
    Commercial name : Dolby TrueHD with Dolby Atmos
    Codec ID : A_TRUEHD
    Duration : 2h 1mn
    Bit rate mode : Variable
    Bit rate : 3 819 Kbps
    Maximum bit rate : 7 158 Kbps
    Channel(s) : 8 channels
    Channel layout : L R C LFE Ls Rs Lb Rb
    Sampling rate : 48.0 KHz
    Frame rate : 1 200.000 fps (40 SPF)
    Compression mode : Lossless
    Stream size : 3.25 GiB (13%)
    Title : English Original TrueHD
    Language : English
    Default : No
    Forced : No
    Number of dynamic objects : 15
    Bed channel count : 1 channel
    Bed channel configuration : LFE
    Audio #6
    ID : 7
    Format : AC-3
    Format/Info : Audio Coding 3
    Commercial name : Dolby Digital
    Codec ID : A_AC3
    Duration : 2h 1mn
    Bit rate mode : Constant
    Bit rate : 640 Kbps
    Channel(s) : 6 channels
    Channel layout : L R C LFE Ls Rs
    Sampling rate : 48.0 KHz
    Frame rate : 31.250 fps (1536 SPF)
    Compression mode : Lossy
    Stream size : 558 MiB (2%)
    Title : English Original
    Language : English
    Service kind : Complete Main
    Default : No
    Forced : No
    Text #1
    ID : 8
    Format : UTF-8
    Codec ID : S_TEXT/UTF8
    Codec ID/Info : UTF-8 Plain Text
    Duration : 1h 54mn
    Bit rate : 5 bps
    Count of elements : 72
    Stream size : 4.41 KiB (0%)
    Title : Russian forced
    Language : Russian
    Default : Yes
    Forced : No
    Text #2
    ID : 9
    Format : UTF-8
    Codec ID : S_TEXT/UTF8
    Codec ID/Info : UTF-8 Plain Text
    Duration : 1h 57mn
    Bit rate : 75 bps
    Count of elements : 1108
    Stream size : 64.8 KiB (0%)
    Title : Russian full iTunes
    Language : Russian
    Default : No
    Forced : No
    Text #3
    ID : 10
    Format : UTF-8
    Codec ID : S_TEXT/UTF8
    Codec ID/Info : UTF-8 Plain Text
    Duration : 1h 54mn
    Bit rate : 8 bps
    Count of elements : 101
    Stream size : 7.51 KiB (0%)
    Title : Russian forced Enigma
    Language : Russian
    Default : No
    Forced : No
    Text #4
    ID : 11
    Format : UTF-8
    Codec ID : S_TEXT/UTF8
    Codec ID/Info : UTF-8 Plain Text
    Duration : 1h 55mn
    Bit rate : 79 bps
    Count of elements : 1221
    Stream size : 67.5 KiB (0%)
    Title : Russian full Enigma
    Language : Russian
    Default : No
    Forced : No
    Text #5
    ID : 12
    Format : UTF-8
    Codec ID : S_TEXT/UTF8
    Codec ID/Info : UTF-8 Plain Text
    Duration : 1h 54mn
    Bit rate : 44 bps
    Count of elements : 1326
    Stream size : 36.9 KiB (0%)
    Title : English full
    Language : English
    Default : No
    Forced : No
    Text #6
    ID : 13
    Format : UTF-8
    Codec ID : S_TEXT/UTF8
    Codec ID/Info : UTF-8 Plain Text
    Duration : 1h 58mn
    Bit rate : 55 bps
    Count of elements : 1735
    Stream size : 47.9 KiB (0%)
    Title : English SDH
    Language : English
    Default : No
    Forced : No
    Menu
    00: 00: 01.700 : en: Studio Logo
    00: 00: 15.700 : en: Makeup
    00: 01: 32.700 : en: Broken Sign
    00: 03: 43.700 : en: Therapy
    00: 07: 42.700 : en: Bus
    00: 09: 15.700 : en: Meeting Murray
    00: 15: 21.700 : en: Protection
    00: 19: 13.700 : en: Enter Sophie
    00: 21: 01.700 : en: Bath
    00: 23: 34.700 : en: Following
    00: 24: 53.700 : en: Comedy Scout
    00: 26: 01.700 : en: Invite
    00: 27: 59.700 : en: Hospital Gig
    00: 29: 23.700 : en: Subway Scuffle
    00: 34: 10.700 : en: Fleeing
    00: 36: 14.700 : en: First Kiss
    00: 36: 46.700 : en: Punching Out
    00: 38: 14.700 : en: Wayne Interview
    00: 39: 56.700 : en: Negative Thoughts
    00: 42: 14.700 : en: Open Mic
    00: 45: 15.700 : en: Date
    00: 46: 21.700 : en: Letter to Wayne
    00: 50: 23.700 : en: Clipping
    00: 51: 12.700 : en: Wayne Manor
    00: 55: 16.700 : en: Emergency
    00: 56: 19.700 : en: Detectives
    00: 58: 32.700 : en: Arthur on T.V.
    01: 01: 01.700 : en: Protest Coverage
    01: 02: 18.700 : en: Meeting Wayne
    01: 07: 11.700 : en: Invitation
    01: 09: 36.700 : en: Arkham
    01: 13: 26.700 : en: Penny\'s File
    01: 15: 41.700 : en: Sophie\'s Place
    01: 19: 49.700 : en: Life\'s a Comedy
    01: 22: 12.700 : en: Practice
    01: 24: 28.700 : en: Randall and Gary visit Arthur
    01: 30: 15.700 : en: Stairwell Waltz
    01: 34: 51.700 : en: Dressing Room
    01: 37: 02.700 : en: Arthur\'s Big Moment
    01: 46: 35.700 : en: Riot
    01: 49: 05.700 : en: Crime Alley
    01: 50: 02.700 : en: Joker\'s Fans
    01: 52: 33.700 : en: Thinking of a Joke
    01: 55: 39.700 : en: End Credits

    Скриншоты для ознакомления



    Все одноименные релизы в Клубе
    Время раздачи: 24/7 (круглосуточно) (до появления первых 3-5 скачавших)

    Онлайн видео Джокер



    Джокер/Joker (2019) BDRemux [H.264/1080p]
    Рейтинг →
     (голосов: 1, оценка 5/5, голосовать можно 1 раз )

    Другие торренты по теме:

  • Джокер / Joker (2019) TS [AD]
  • Джокер / Joker (2012) DVDRip
  • Джокер / Joker (2019) WEBRip [H.264 / 1080p-LQ] [AVO]
  • Джокер / Joker (2019) WEBRip [H.264 / 1080p] [EN / KOR Sub]
  • Джокер / Joker (2019) WEBRip [H.264 / 720p-LQ] [AVO]
  • Джокер / Joker (2019) WEBRip [H.264 / 1080p-LQ] [Line, AD]
  • Джокер / Joker (2019) WEBRip [H.264 / 720p-LQ] [MVO]
  • Джокер / Joker (2019) WEBRip [H.264 / 1080p] [PR]


    • Комментарии (0):

      Информация

      Информация

        Посетители, находящиеся в группе Гости, не могут оставлять комментарии в данной новости.

        ↓ Меню




        ↓ Опрос

        Вы добавили сайт в закладки?
        Да
        Нет


        Популярное