.
Авторизация | Регистрация
bitok.xyz
» » Призрачная шестёрка (Шестеро вне закона) / 6 Underground (2019) WEB-DL [H.264 / 1080p-LQ] торрент скачать бесплатно


    Призрачная шестёрка (Шестеро вне закона) / 6 Underground (2019) WEB-DL [H.264 / 1080p-LQ] торрент скачать бесплатно

    Дата: 29-12-2019, 05:00 | .torrent скачали: 2

    Призрачная шестёрка (Шестеро вне закона) / 6 Underground (2019) WEB-DL [H.264 / 1080p-LQ]Производство: США/Bay Films, Skydance Media
    Жанр: Боевик
    Режиссер: Майкл Бэй

    Актеры
    Райан Рейнольдс, Мелани Лоран, Мануэль Рульфо, Бен Харди, Адриа Архона, Дэйв Франко, Кори Хоукинс, Лайор Раз, Пейман Моаади, Юрий Колокольников

    Описание

    Инсценировав собственную смерть, сознательный миллиардер начинает новую жизнь — набирает отряд наёмников из разных стран, чтобы бороться со злом в этом мире. Все члены команды получают вместо имён цифры, и их целью становится свержение диктатора и освобождение народа страны Тургистан.

    Рейтинг MPAA: R (лицам до 17 лет обязательно присутствие взрослого)
    Дата мировой премьеры: 10 декабря 2019
    Релиз от: mike7025
    Продолжительность: 02: 08: 52
    Качество видео: WEB-DL
    Перевод: Дублированный, многоголосый профессиональный
    Субтитры: Русские (forced, full), английские, французские, немецкие
    Видео: AVC/H.264, 1920х1080, ~7500 Kbps
    Аудио 1: Е-AC3, 6 ch, 640 Kbps - Русский (Dub, Пифагор)
    Аудио 2: AC3, 6 ch, 640 Kbps - Русский (MVO, Jaskier)ненормативная лексика
    Аудио 3: E-AC3+Atmos, 6 ch, 768 Kbps - Английский
    General
    Unique ID : 316286304261212255253447168007000099508 (0xEDF286C49DBAD731AC38568DEF5D0AB4)
    Complete name : G: 6.Underground.WEB-DL.1080p.mkv
    Format : Matroska
    Format version : Version 4/Version 2
    File size : 8.48 GiB
    Duration : 2 h 8 min
    Overall bit rate mode : Variable
    Overall bit rate : 9 418 kb/s
    Encoded date : UTC 2019-12-27 22: 29: 06
    Writing application : mkvmerge v20.0.0 (\'I Am The Sun\') 64-bit
    Writing library : libebml v1.3.5 + libmatroska v1.4.8
    Video
    ID : 1
    Format : AVC
    Format/Info : Advanced Video Codec
    Format profile : Main@L4
    Format settings : CABAC/3 Ref Frames
    Format settings, CABAC : Yes
    Format settings, RefFrames : 3 frames
    Codec ID : V_MPEG4/ISO/AVC
    Duration : 2 h 8 min
    Bit rate mode : Variable
    Bit rate : 7 500 kb/s
    Maximum bit rate : 11.2 Mb/s
    Width : 1 920 pixels
    Height : 1 080 pixels
    Display aspect ratio : 16: 9
    Frame rate mode : Constant
    Frame rate : 23.976 (24000/1001) FPS
    Color space : YUV
    Chroma subsampling : 4: 2: 0
    Bit depth : 8 bits
    Scan type : Progressive
    Bits/(Pixel*Frame) : 0.151
    Stream size : 6.63 GiB (78%)
    Writing library : x264 core 148 r2715 7e75228
    Encoding settings : cabac=1/ref=3/deblock=1: 0: 0/analyse=0x1: 0x111/me=umh/subme=10/psy=1/psy_rd=1.00: 0.00/mixed_ref=1/me_range=24/chroma_me=1/trellis=2/8x8dct=0/cqm=0/deadzone=21, 11/fast_pskip=1/chroma_qp_offset=-2/threads=6/lookahead_threads=1/sliced_threads=0/nr=0/decimate=1/interlaced=0/bluray_compat=0/stitchable=1/constrained_intra=0/bframes=2/b_pyramid=0/b_adapt=2/b_bias=0/direct=3/weightb=1/open_gop=0/weightp=2/keyint=250/keyint_min=23/scenecut=0/intra_refresh=0/rc_lookahead=48/rc=2pass/mbtree=1/bitrate=7500/ratetol=1.0/qcomp=0.50/qpmin=6/qpmax=51/qpstep=4/cplxblur=20.0/qblur=0.5/vbv_maxrate=11250/vbv_bufsize=15000/nal_hrd=vbr/filler=0/ip_ratio=1.40/aq=1: 1.00
    Language : English
    Default : Yes
    Forced : No
    Audio #1
    ID : 2
    Format : E-AC-3
    Format/Info : Enhanced Audio Coding 3
    Codec ID : A_EAC3
    Duration : 2 h 8 min
    Bit rate mode : Constant
    Bit rate : 640 kb/s
    Channel(s) : 6 channels
    Channel positions : Front: L C R, Side: L R, LFE
    Sampling rate : 48.0 kHz
    Frame rate : 187.500 FPS (256 SPF)
    Compression mode : Lossy
    Stream size : 590 MiB (7%)
    Title : Dub
    Language : Russian
    Service kind : Complete Main
    Default : Yes
    Forced : No
    Audio #2
    ID : 3
    Format : AC-3
    Format/Info : Audio Coding 3
    Codec ID : A_AC3
    Duration : 2 h 8 min
    Bit rate mode : Constant
    Bit rate : 640 kb/s
    Channel(s) : 6 channels
    Channel positions : Front: L C R, Side: L R, LFE
    Sampling rate : 48.0 kHz
    Frame rate : 31.250 FPS (1536 SPF)
    Bit depth : 16 bits
    Compression mode : Lossy
    Stream size : 590 MiB (7%)
    Title : MVO Jaskier
    Language : Russian
    Service kind : Complete Main
    Default : No
    Forced : No
    Audio #3
    ID : 4
    Format : E-AC-3
    Format/Info : Enhanced Audio Coding 3
    Format profile : E-AC-3+Atmos/E-AC-3
    Codec ID : A_EAC3
    Duration : 2 h 8 min
    Bit rate mode : Constant
    Bit rate : 768 kb/s
    Channel(s) : 15 objects/6 channels
    Channel positions : 15 objects/Front: L C R, Side: L R, LFE
    Sampling rate : 48.0 kHz
    Frame rate : 187.500 FPS (256 SPF)
    Compression mode : Lossy
    Stream size : 708 MiB (8%)
    Language : English
    Service kind : Complete Main
    Default : No
    Forced : No
    Text #1
    ID : 5
    Format : UTF-8
    Codec ID : S_TEXT/UTF8
    Codec ID/Info : UTF-8 Plain Text
    Duration : 2 h 4 min
    Bit rate : 2 b/s
    Count of elements : 67
    Stream size : 2.36 KiB (0%)
    Title : forced
    Language : Russian
    Default : Yes
    Forced : No
    Text #2
    ID : 6
    Format : UTF-8
    Codec ID : S_TEXT/UTF8
    Codec ID/Info : UTF-8 Plain Text
    Duration : 2 h 7 min
    Bit rate : 83 b/s
    Count of elements : 1644
    Stream size : 78.0 KiB (0%)
    Language : Russian
    Default : No
    Forced : No
    Text #3
    ID : 7
    Format : UTF-8
    Codec ID : S_TEXT/UTF8
    Codec ID/Info : UTF-8 Plain Text
    Duration : 2 h 6 min
    Bit rate : 66 b/s
    Count of elements : 1890
    Stream size : 61.4 KiB (0%)
    Language : English
    Default : No
    Forced : No
    Text #4
    ID : 8
    Format : UTF-8
    Codec ID : S_TEXT/UTF8
    Codec ID/Info : UTF-8 Plain Text
    Duration : 2 h 7 min
    Bit rate : 55 b/s
    Count of elements : 1624
    Stream size : 51.6 KiB (0%)
    Language : French
    Default : No
    Forced : No
    Text #5
    ID : 9
    Format : UTF-8
    Codec ID : S_TEXT/UTF8
    Codec ID/Info : UTF-8 Plain Text
    Duration : 2 h 7 min
    Bit rate : 54 b/s
    Count of elements : 1646
    Stream size : 51.5 KiB (0%)
    Language : German
    Default : No
    Forced : No

    Скриншоты для ознакомления




    Все одноименные релизы в Клубе
    Время раздачи: 24/7 (до появления первых 3-5 скачавших)

    Онлайн видео Призрачная шестёрка (Шестеро вне закона)



    Призрачная шестёрка (Шестеро вне закона)/6 Underground (2019) WEB-DL [H.264/1080p-LQ]
    Рейтинг →
     (голосов: 1, оценка 4/5, голосовать можно 1 раз )

    Другие торренты по теме:

  • Призрачная шестёрка (Шестеро вне закона) / 6 Underground (2019) WEB-DL [H.264 / 720p-LQ]


    • Комментарии (0):

      Информация

      Информация

        Посетители, находящиеся в группе Гости, не могут оставлять комментарии в данной новости.

        ↓ Меню




        ↓ Опрос

        Вы добавили сайт в закладки?
        Да
        Нет


        Популярное