.
Авторизация | Регистрация
bitok.xyz
» » Zомбилэнд: Контрольный выстрел / Zombieland: Double Tap (2019) BDRip [H.264 / 720p] торрент скачать бесплатно

    Zомбилэнд: Контрольный выстрел / Zombieland: Double Tap (2019) BDRip [H.264 / 720p] торрент скачать бесплатно

    Дата: 29-12-2019, 05:00 | .torrent скачали: 0

    Zомбилэнд: Контрольный выстрел / Zombieland: Double Tap (2019) BDRip [H.264 / 720p]Производство: США/Columbia Pictures, Pariah
    Жанр: Ужасы, комедия, боевик
    Режиссер: Рубен Фляйшер
    Продюсер: Гэвин Полон, Даг Белград, Дэвид Бернад

    Актеры
    Джесси Айзенберг, Вуди Харрельсон, Эмма Стоун, Эбигейл Бреслин, Зои Дойч, Эван Джогиа, Розарио Доусон, Люк Уилсон, Томас Миддлдитч, Виктория Холл

    Описание
    Беспощадная и бесстрашная четверка охотников на зомби продолжает свое путешествие в глубь страны. На этот раз им предстоит сразиться не только с новыми видами живых мертвецов, но и познакомиться с другими выжившими. Кроме того, в собственных рядах наших героев намечается серьезный разлад.

    Возраст: 18+ Зрителям, достигшим 18 лет
    Рейтинг MPAA: R Лицам до 17 обязательно присутствие взрослых
    Дата мировой премьеры: 9 октября 2019
    Дата российской премьеры: 24 октября 2019, WDSSPR
    Цифровой релиз: 27 декабря 2019, Уолт Дисней Компани СНГ
    Релиз от: NNMClub
    Продолжительность: 01: 39: 01
    Качество видео: BDRip 720p
    Перевод: Дублированный(iTunes)
    Субтитры: Русские (Forced, Full), Украинские (Full), Английские (Forced, full)
    Видео: AVC/H.264, 1280x536, 4000 Kbps, 23.976 fps
    Аудио 1 : AC-3, 6 ch, 384 Kbps | Русский Dub iTunes
    Аудио 2 : AC-3, 2.0 ch, 160 Kbps | Украинский Dub iTunes
    Аудио 3 : AC-3, 6 ch, 640 Kbps | Английский
    General
    Unique ID : 102068999979923065575466949093560746043 (0x4CC9C63B81B3BB17BD2BAE52F51D003B)
    Complete name : /Volumes/Promise 2/Zombieland.Double.Tap.BDRip.720p.pk.mkv
    Format : Matroska
    Format version : Version 4
    File size : 3.59 GiB
    Duration : 1h 39mn
    Overall bit rate : 5 188 Kbps
    Movie name : Zombieland Double Tap BDRip 720p pk
    Encoded date : UTC 2019-12-28 14: 10: 02
    Writing application : mkvmerge v41.0.0 (\'Smarra\') 64-bit
    Writing library : libebml v1.3.9 + libmatroska v1.5.2
    Video
    ID : 1
    Format : AVC
    Format/Info : Advanced Video Codec
    Format profile : High@L4.1
    Format settings : CABAC/12 Ref Frames
    Format settings, CABAC : Yes
    Format settings, ReFrames : 12 frames
    Codec ID : V_MPEG4/ISO/AVC
    Duration : 1h 39mn
    Bit rate : 4 000 Kbps
    Width : 1 280 pixels
    Height : 536 pixels
    Display aspect ratio : 2.40: 1
    Frame rate mode : Constant
    Frame rate : 23.976 (24000/1001) fps
    Color space : YUV
    Chroma subsampling : 4: 2: 0
    Bit depth : 8 bits
    Scan type : Progressive
    Bits/(Pixel*Frame) : 0.243
    Stream size : 2.77 GiB (77%)
    Writing library : x264 core 157 r2935 545de2f
    Encoding settings : cabac=1/ref=12/deblock=1: -3: -3/analyse=0x3: 0x113/me=umh/subme=9/psy=1/psy_rd=1.00: 0.00/mixed_ref=1/me_range=32/chroma_me=1/trellis=2/8x8dct=1/cqm=0/deadzone=21, 11/fast_pskip=0/chroma_qp_offset=-2/threads=17/lookahead_threads=4/sliced_threads=0/nr=0/decimate=0/interlaced=0/bluray_compat=0/constrained_intra=0/bframes=12/b_pyramid=2/b_adapt=2/b_bias=0/direct=1/weightb=0/open_gop=0/weightp=2/keyint=240/keyint_min=24/scenecut=40/intra_refresh=0/rc_lookahead=70/rc=2pass/mbtree=0/bitrate=4000/ratetol=1.0/qcomp=0.65/qpmin=0/qpmax=69/qpstep=4/cplxblur=20.0/qblur=0.5/vbv_maxrate=50000/vbv_bufsize=62000/nal_hrd=none/filler=0/ip_ratio=1.40/pb_ratio=1.30/aq=1: 1.10
    Language : English
    Default : Yes
    Forced : No
    Color range : Limited
    Color primaries : BT.709
    Transfer characteristics : BT.709
    Matrix coefficients : BT.709
    Audio #1
    ID : 2
    Format : AC-3
    Format/Info : Audio Coding 3
    Commercial name : Dolby Digital
    Codec ID : A_AC3
    Duration : 1h 39mn
    Bit rate mode : Constant
    Bit rate : 384 Kbps
    Channel(s) : 6 channels
    Channel layout : L R C LFE Ls Rs
    Sampling rate : 48.0 KHz
    Frame rate : 31.250 fps (1536 SPF)
    Compression mode : Lossy
    Stream size : 272 MiB (7%)
    Title : Russian Dub iTunes
    Language : Russian
    Service kind : Complete Main
    Default : Yes
    Forced : No
    Audio #2
    ID : 3
    Format : AC-3
    Format/Info : Audio Coding 3
    Commercial name : Dolby Digital
    Codec ID : A_AC3
    Duration : 1h 39mn
    Bit rate mode : Constant
    Bit rate : 160 Kbps
    Channel(s) : 2 channels
    Channel layout : L R
    Sampling rate : 48.0 KHz
    Frame rate : 31.250 fps (1536 SPF)
    Compression mode : Lossy
    Stream size : 113 MiB (3%)
    Title : Ukrainian Dub iTunes
    Language : Ukrainian
    Service kind : Complete Main
    Default : No
    Forced : No
    Audio #3
    ID : 4
    Format : AC-3
    Format/Info : Audio Coding 3
    Commercial name : Dolby Digital
    Codec ID : A_AC3
    Duration : 1h 39mn
    Bit rate mode : Constant
    Bit rate : 640 Kbps
    Channel(s) : 6 channels
    Channel layout : L R C LFE Ls Rs
    Sampling rate : 48.0 KHz
    Frame rate : 31.250 fps (1536 SPF)
    Compression mode : Lossy
    Stream size : 453 MiB (12%)
    Title : English Original
    Language : English
    Service kind : Complete Main
    Default : No
    Forced : No
    Text #1
    ID : 5
    Format : UTF-8
    Codec ID : S_TEXT/UTF8
    Codec ID/Info : UTF-8 Plain Text
    Duration : 1h 37mn
    Bit rate : 1 bps
    Count of elements : 35
    Stream size : 1.42 KiB (0%)
    Title : Russian forced
    Language : Russian
    Default : Yes
    Forced : No
    Text #2
    ID : 6
    Format : UTF-8
    Codec ID : S_TEXT/UTF8
    Codec ID/Info : UTF-8 Plain Text
    Duration : 1h 38mn
    Bit rate : 106 bps
    Count of elements : 1736
    Stream size : 76.7 KiB (0%)
    Title : Russian full
    Language : Russian
    Default : No
    Forced : No
    Text #3
    ID : 7
    Format : UTF-8
    Codec ID : S_TEXT/UTF8
    Codec ID/Info : UTF-8 Plain Text
    Duration : 1h 38mn
    Bit rate : 138 bps
    Count of elements : 1809
    Stream size : 100 KiB (0%)
    Title : Russian full v.2
    Language : Russian
    Default : No
    Forced : No
    Text #4
    ID : 8
    Format : UTF-8
    Codec ID : S_TEXT/UTF8
    Codec ID/Info : UTF-8 Plain Text
    Duration : 1h 38mn
    Bit rate : 112 bps
    Count of elements : 1467
    Stream size : 81.1 KiB (0%)
    Title : Ukrainian full
    Language : Ukrainian
    Default : No
    Forced : No
    Text #5
    ID : 9
    Format : UTF-8
    Codec ID : S_TEXT/UTF8
    Codec ID/Info : UTF-8 Plain Text
    Duration : 28mn 6s
    Bit rate : 0 bps
    Count of elements : 7
    Stream size : 157 Bytes (0%)
    Title : English forced
    Language : English
    Default : No
    Forced : No
    Text #6
    ID : 10
    Format : UTF-8
    Codec ID : S_TEXT/UTF8
    Codec ID/Info : UTF-8 Plain Text
    Duration : 1h 38mn
    Bit rate : 83 bps
    Count of elements : 1805
    Stream size : 60.2 KiB (0%)
    Title : English full
    Language : English
    Default : No
    Forced : No
    Menu
    00: 00: 00.000 : en: Chapter 1
    00: 05: 00.675 : en: Chapter 2
    00: 11: 08.001 : en: Chapter 3
    00: 15: 24.507 : en: Chapter 4
    00: 21: 16.192 : en: Chapter 5
    00: 29: 15.545 : en: Chapter 6
    00: 36: 55.422 : en: Chapter 7
    00: 44: 03.015 : en: Chapter 8
    00: 50: 12.968 : en: Chapter 9
    00: 57: 52.511 : en: Chapter 10
    01: 03: 51.870 : en: Chapter 11
    01: 06: 50.048 : en: Chapter 12
    01: 10: 12.125 : en: Chapter 13
    01: 15: 40.119 : en: Chapter 14
    01: 23: 45.312 : en: Chapter 15
    01: 29: 48.216 : en: Chapter 16

    x264 info: frame I: 1485 Avg QP: 15.51 size: 121192
    x264 info: frame P: 37590 Avg QP: 17.70 size: 39462
    x264 info: frame B: 103389 Avg QP: 19.04 size: 12654
    x264 info: consecutive B-frames: 4.0% 6.3% 7.4% 50.5% 11.0% 9.8% 2.3% 7.4% 0.5% 0.3% 0.1% 0.3% 0.0%
    x264 info: mb I I16..4: 3.5% 78.2% 18.3%
    x264 info: mb P I16..4: 1.1% 11.2% 1.6% P16..4: 38.8% 28.7% 16.7% 0.0% 0.0% skip: 2.0%
    x264 info: mb B I16..4: 0.1% 0.8% 0.2% B16..8: 45.2% 14.4% 4.2% direct: 5.5% skip: 29.7% L0: 42.6% L1: 44.9% BI: 12.5%
    x264 info: 8x8 transform intra: 79.7% inter: 56.0%
    x264 info: coded y, uvDC, uvAC intra: 91.2% 89.2% 73.2% inter: 31.8% 31.2% 14.7%
    x264 info: i16 v, h, dc, p: 39% 25% 5% 31%
    x264 info: i8 v, h, dc, ddl, ddr, vr, hd, vl, hu: 13% 9% 8% 9% 13% 13% 12% 12% 11%
    x264 info: i4 v, h, dc, ddl, ddr, vr, hd, vl, hu: 13% 10% 3% 9% 15% 15% 13% 11% 11%
    x264 info: i8c dc, h, v, p: 45% 19% 18% 18%
    x264 info: Weighted P-Frames: Y: 2.7% UV: 1.1%
    x264 info: ref P L0: 51.3% 13.3% 13.9% 5.3% 4.3% 3.1% 2.7% 1.5% 1.4% 1.1% 1.1% 1.0% 0.1% 0.0%
    x264 info: ref B L0: 75.1% 9.8% 5.2% 2.6% 2.1% 1.6% 1.4% 0.8% 0.7% 0.5% 0.2%
    x264 info: ref B L1: 94.9% 5.1%
    x264 info: kb/s: 4000.96

    Скриншоты для ознакомления



    Все одноименные релизы в Клубе
    Время раздачи: 24/7 (круглосуточно) (до появления первых 3-5 скачавших)

    Онлайн видео Zомбилэнд: Контрольный выстрел


    Прямая ссылка скачивания через uTorrent


    Zомбилэнд: Контрольный выстрел/Zombieland: Double Tap (2019) BDRip [H.264/720p]
    Рейтинг →
     (голосов: 1, оценка 3/5, голосовать можно 1 раз )

    Другие торренты по теме:

  • Zомбилэнд: Контрольный выстрел / Zombieland: Double Tap (2019) CAMRip [H.264 / 720p-LQ] [MVO] [AD]
  • Zомбилэнд: Контрольный выстрел / Zombieland: Double Tap (2019) WEBRip [H.264 / 1080p-LQ] [ENG / Kor, Ru, Ukr Sub]
  • Zомбилэнд: Контрольный выстрел / Zombieland: Double Tap (2019) WEBRip [ENG / Kor, Ru Sub]
  • Zомбилэнд: Контрольный выстрел / Zombieland: Double Tap (2019) WEBRip [H.264]
  • Zомбилэнд: Контрольный выстрел / Zombieland: Double Tap (2019) HDRip
  • Zомбилэнд: Контрольный выстрел / Zombieland: Double Tap (2019) BDRip [H.264 / 720p] [PR]
  • Zомбилэнд: Контрольный выстрел / Zombieland: Double Tap (2019) BDRip [H.264 / 1080p] [PR]
  • Zомбилэнд: Контрольный выстрел / Zombieland: Double Tap (2019) BDRip [H.264]


    • Комментарии (0):

      Информация

      Информация

        Посетители, находящиеся в группе Гости, не могут оставлять комментарии в данной новости.

        ↓ Меню




        ↓ Опрос

        Вы добавили сайт в закладки?
        Да
        Нет


        Популярное