.
Авторизация | Регистрация
bitok.xyz
» » Ип Ман 4 / Yip Man 4 (2019) TS [MVO] [AD] торрент скачать бесплатно


    Ип Ман 4 / Yip Man 4 (2019) TS [MVO] [AD] торрент скачать бесплатно

    Дата: 29-12-2019, 05:00 | .torrent скачали: 2

    Ип Ман 4 / Yip Man 4 (2019) TS [MVO] [AD]Производство: Гонконг, Китай/Bullet Films, Mandarin Motion Pictures, Shanghai Bona Cultural Media
    Жанр: Боевик, биография
    Режиссер: Уилсон Ип

    Актеры
    Донни Йен, Дэнни Чан, У Юэ, Скотт Эдкинс, Ванесс У, Крис Коллинз, Никола Стюарт-Хилл, Grace Englert, Кент Чэн, Дэвид Джонсон Вуд

    Описание

    Америка, 1960-е годы. Ип Ман прибывает в Сиэтл, где один из его учеников решил открыть школу вин-чун.

    Дата мировой премьеры: 20 декабря 2019
    Продолжительность: 01: 40: 22
    Качество видео: TS
    Перевод: Многоголосый закадровый, любительский (КОЛОБОК)
    Субтитры: Китайские, английские (хардсаб)
    Реклама: Присутствует баннер.
    Видео: AVC/H.264, 1280x506, ~3663 Kbps
    Аудио: AC-3, 2 ch, 384 Kbps
    Общее
    Полное имя : D: NNMИп Ман 4Ip.man.4.2019.TS.720p-LQ.mkv
    Формат : Matroska
    Версия формата : Version 2
    Размер файла : 2, 89 Гбайт
    Продолжительность : 1 ч. 40 м.
    Режим общего битрейта : Переменный
    Общий поток : 4129 Кбит/сек
    Программа кодирования : libmatroska 1.4.1
    Библиотека кодирования : SolveigMM Matroska Muxer Version 1.0.1502.31
    Видео
    Идентификатор : 1
    Формат : AVC
    Формат/Информация : Advanced Video Codec
    Профиль формата : High@L4.1
    Настройки формата : CABAC/4 Ref Frames
    Параметр CABAC формата : Да
    Параметр RefFrames формата : 4 кадра
    Идентификатор кодека : V_MPEG4/ISO/AVC
    Продолжительность : 1 ч. 40 м.
    Вид битрейта : Переменный
    Битрейт : 3663 Кбит/сек
    Номинальный битрейт : 4000 Кбит/сек
    Максимальный битрейт : 4000 Кбит/сек
    Ширина : 1280 пикселей
    Высота : 506 пикселей
    Соотношение сторон : 2, 530
    Режим частоты кадров : Постоянный
    Частота кадров : 23, 976 (24000/1001) кадра/сек
    Стандарт вещания : Component
    Цветовое пространство : YUV
    Субдискретизация насыщенности : 4: 2: 0
    Битовая глубина : 8 бит
    Тип развёртки : Прогрессивная
    Бит/(Пиксели*Кадры) : 0.236
    Размер потока : 2, 57 Гбайт (89%)
    Default : Нет
    Forced : Нет
    Цветовой диапазон : Limited
    Основные цвета : BT.709
    Характеристики трансфера : BT.709
    Коэффициенты матрицы : BT.709
    Аудио
    Идентификатор : 2
    Формат : AC-3
    Формат/Информация : Audio Coding 3
    Коммерческое название : Dolby Digital
    Идентификатор кодека : A_AC3
    Продолжительность : 1 ч. 40 м.
    Вид битрейта : Постоянный
    Битрейт : 384 Кбит/сек
    Каналы : 2 канала
    ChannelLayout : L R
    Частота : 48, 0 КГц
    Частота кадров : 31, 250 кадров/сек (1536 SPF)
    Метод сжатия : С потерями
    Размер потока : 276 Мбайт (9%)
    Язык : Russian
    ServiceKind/String : Complete Main
    Default : Нет
    Forced : Нет

    Скриншоты для ознакомления



    Все одноименные релизы в Клубе Время раздачи: 24/7 (до появления первых 3-5 скачавших)

    Онлайн видео Ип Ман 4



    Ип Ман 4/Yip Man 4 (2019) TS [MVO] [AD]
    Рейтинг →
     (голосов: 1, оценка 4/5, голосовать можно 1 раз )

    Другие торренты по теме:

  • Фильмы, на которых мы выросли / The Movies That Made Us (2019) WEBRip [H.264 / 720p-LQ] (сезон 1, серии 1-4 из 4) AMS [AD]
  • Фильмы, на которых мы выросли / The Movies That Made Us (2019) WEBRip (сезон 1, серии 1-4 из 4) AMS [AD]
  • Фильмы, на которых мы выросли / The Movies That Made Us (2019) WEBRip [H.264 / 1080p-LQ] (сезон 1, серии 1-4 из 4) AMS [AD]
  • Монастырские стены (2012-2013) SATRip [Фильмы 9-18] скачать через торрент бесплатно
  • Новомученики (2012) DVDRip [фильмы 1-4 из 4]
  • Путешествие к Чехову (1982-1983) TVRip [фильмы 1-5 из 5] скачать через торрент бесплатно
  • Оригинальные анимационные фильмы вселенной DC / DC Universe Animated Original Movies (2007 - 2015) BDRip [1080p] (23 фильма) скачать через торрент бесплатно
  • Sureiyāzu Eiga / Slayers Movie / Рубаки Фильмы [1995-2001, Movie, 5] BDRip 1080p raw скачать через торрент бесплатно


    • Комментарии (0):

      Информация

      Информация

        Посетители, находящиеся в группе Гости, не могут оставлять комментарии в данной новости.

        ↓ Меню




        ↓ Опрос

        Вы добавили сайт в закладки?
        Да
        Нет


        Популярное