.
Авторизация | Регистрация
bitok.xyz
» » Того / Togo (2019) WEB-DLRip [MVO] торрент скачать бесплатно


    Того / Togo (2019) WEB-DLRip [MVO] торрент скачать бесплатно

    Дата: 29-12-2019, 05:00 | .torrent скачали: 1

    Того / Togo (2019) WEB-DLRip [MVO]Производство: США/The Walt Disney Company, Walt Disney Pictures
    Жанр: Драма
    Режиссер: Эриксон Кор

    Актеры
    Уиллем Дефо, Джулианна Николсон, Кристофер Хейердал, Ричард Дормер, Эдриан Дорваль, Мадлен Уикинс, Майкл Грейес, Нив Нилсен, Николай Николаефф, Торбьорн Харр

    Описание

    Пёс Того в 1925 году помог предотвратить эпидемию дифтерии в городе Ном, Аляска. В упряжке с другими ездовыми собаками Того, несмотря на страшные погодные условия, смог доставить в город посылку с антитоксином, остановившим распространение болезни. Основано на реальных событиях.

    Рейтинг MPAA: PG (рекомендуется присутствие родителей)
    Дата мировой премьеры: 20 декабря 2019
    Продолжительность: 01: 53: 00
    Качество видео: WEB-DLRip
    Перевод: Многоголосый профессиональный (HDRezka Studio)
    Субтитры: Русские (Форс.), Английские (Full, SDH) - отдельными файлами
    Видео: Xvid, 704x352, ~1975 Kbps
    Аудио #1: AC3, 6 ch, 384 Kbps - русский
    Аудио #2: AC3, 6 ch, 384 Kbps - английский
    Общее
    Полное имя : F: Того (2019)Того_2019_WEB-DLRip.avi
    Формат : AVI
    Формат/Информация : Audio Video Interleave
    Профиль формата : OpenDML
    Размер файла : 2, 18 Гбайт
    Продолжительность : 1 ч. 53 м.
    Общий поток : 2759 Кбит/сек
    Название фильма : Того_2019_WEB-DLRip
    Программа кодирования : VirtualDubMod 1.5.10.3 |www.virtualdub-fr.org|| (build 2550/release)
    Библиотека кодирования : VirtualDubMod build 2550/release
    Авторское право : порошков
    Видео
    Идентификатор : 0
    Формат : MPEG-4 Visual
    Профиль формата : Advanced Simple@L5
    Настройки формата : BVOP1/Custom Matrix
    Параметр BVOP формата : 1
    Параметр QPel формата : Нет
    Параметр GMC формата : Без точки перехода
    Параметр матрицы формата : Выборочная
    Идентификатор кодека : XVID
    Идентификатор кодека/Подсказка : XviD
    Продолжительность : 1 ч. 53 м.
    Битрейт : 1974 Кбит/сек
    Ширина : 704 пикселя
    Высота : 352 пикселя
    Соотношение сторон : 2, 000
    Частота кадров : 23, 976 (24000/1001) кадра/сек
    Цветовое пространство : YUV
    Субдискретизация насыщенности : 4: 2: 0
    Битовая глубина : 8 бит
    Тип развёртки : Прогрессивная
    Метод сжатия : С потерями
    Бит/(Пиксели*Кадры) : 0.332
    Размер потока : 1, 56 Гбайт (72%)
    Библиотека кодирования : XviD 73
    Аудио #1
    Идентификатор : 1
    Формат : AC-3
    Формат/Информация : Audio Coding 3
    Коммерческое название : Dolby Digital
    Идентификатор кодека : 2000
    Продолжительность : 1 ч. 53 м.
    Вид битрейта : Постоянный
    Битрейт : 384 Кбит/сек
    Каналы : 6 каналов
    ChannelLayout : L R C LFE Ls Rs
    Частота : 48, 0 КГц
    Частота кадров : 31, 250 кадров/сек (1536 SPF)
    Метод сжатия : С потерями
    Размер потока : 310 Мбайт (14%)
    Выравнивание : Разделение по промежуткам
    Продолжительность промежутка : 42 мс. (1, 00 видеокадр)
    Время предзагрузки промежутка : 500 мс.
    Заголовок : rus
    ServiceKind/String : Complete Main
    Аудио #2
    Идентификатор : 2
    Формат : AC-3
    Формат/Информация : Audio Coding 3
    Коммерческое название : Dolby Digital
    Идентификатор кодека : 2000
    Продолжительность : 1 ч. 53 м.
    Вид битрейта : Постоянный
    Битрейт : 384 Кбит/сек
    Каналы : 6 каналов
    ChannelLayout : L R C LFE Ls Rs
    Частота : 48, 0 КГц
    Частота кадров : 31, 250 кадров/сек (1536 SPF)
    Метод сжатия : С потерями
    Размер потока : 310 Мбайт (14%)
    Выравнивание : Разделение по промежуткам
    Продолжительность промежутка : 42 мс. (1, 00 видеокадр)
    Время предзагрузки промежутка : 500 мс.
    Заголовок : eng
    ServiceKind/String : Complete Main

    Скриншоты для ознакомления



    Все одноименные релизы в Клубе
    Время раздачи: 24/7 (круглосуточно) (до появления первых 3-5 скачавших)

    Онлайн видео Того



    Того/Togo (2019) WEB-DLRip [MVO]
    Рейтинг →
     (голосов: 1, оценка 5/5, голосовать можно 1 раз )

    Другие торренты по теме:

  • Того / Togo (2019) WEB-DLRip [MVO] [AD]
  • Того / Togo (2019) WEB-DLRip [H.264 / 1080p-LQ] [MVO] [AD]
  • Того / Togo (2019) WEBRip [H.264 / 1080p-LQ] [DVO]
  • Того / Togo (2019) WEB-DL [H.264 / 720p-LQ] [DVO]
  • Того / Togo (2019) WEBRip
  • Того / Togo (2019) WEBRip [H.264] [DVO] [PR]
  • Того / Togo (2019) WEBRip [DVO]
  • Того / Togo (2019) WEB-DL [H.264 / 720p-LQ] [MVO]


    • Комментарии (0):

      Информация

      Информация

        Посетители, находящиеся в группе Гости, не могут оставлять комментарии в данной новости.

        ↓ Меню




        ↓ Опрос

        Вы добавили сайт в закладки?
        Да
        Нет


        Популярное