.
Авторизация | Регистрация
bitok.xyz
» » Достать ножи / Knives Out (2019) DVDScr [AD] торрент скачать бесплатно


    Достать ножи / Knives Out (2019) DVDScr [AD] торрент скачать бесплатно

    Дата: 29-12-2019, 05:00 | .torrent скачали: 7

    Достать ножи / Knives Out (2019) DVDScr [AD]Производство: США/Lionsgate, Media Rights Capital (MRC), T-Street See
    Жанр: Детектив, комедия, драма, криминал
    Режиссер: Райан Джонсон

    Актеры
    Дэниэл Крэйг, Ана де Армас, Крис Эванс, Джейми Ли Кёртис, Майкл Шеннон, Дон Джонсон, Тони Коллетт, Лакит Стэнфилд, Кристофер Пламмер, Кэтрин Лэнгфорд

    Описание

    Когда сразу после празднования 85-летия известного автора криминальных романов Харлана Тромби виновника торжества находят мёртвым, за расследование берётся обаятельный и дотошный частный детектив Бенуа Блан. Ему предстоит распутать тугую сеть уловок и корыстной лжи, которой его опутывают члены неблагополучной семьи Харлана и преданный ему персонал.

    Возраст: 16+ (зрителям, достигшим 16 лет)
    Рейтинг MPAA: PG-13 (детям до 13 лет просмотр нежелателен)
    Дата мировой премьеры: 7 сентября 2019
    Дата премьеры в России: 28 ноября 2019

    Продолжительность: 02: 09: 45
    Качество видео: DVDScr
    Перевод: Дублированный
    Субтитры: Отсутствуют
    Реклама: Присутствует баннер.
    Видео: XviD, 720x384, ~1262 Kbps
    Аудио: AC-3, 2 ch, 192 Kbps
    Общее
    Полное имя : D: NNMДостать ножиKnives.Out.2019.DVDScr.avi
    Формат : AVI
    Формат/Информация : Audio Video Interleave
    Профиль формата : OpenDML
    Размер файла : 1, 33 Гбайт
    Продолжительность : 2 ч. 9 м.
    Общий поток : 1467 Кбит/сек
    Видео
    Идентификатор : 0
    Формат : MPEG-4 Visual
    Профиль формата : Advanced Simple@L5
    Настройки формата : BVOP2/Custom Matrix
    Параметр BVOP формата : 2
    Параметр QPel формата : Нет
    Параметр GMC формата : Без точки перехода
    Параметр матрицы формата : Выборочная
    Идентификатор кодека : XVID
    Идентификатор кодека/Подсказка : XviD
    Продолжительность : 2 ч. 9 м.
    Битрейт : 1262 Кбит/сек
    Ширина : 720 пикселей
    Высота : 384 пикселя
    Соотношение сторон : 1, 85: 1
    Частота кадров : 23, 976 (24000/1001) кадра/сек
    Цветовое пространство : YUV
    Субдискретизация насыщенности : 4: 2: 0
    Битовая глубина : 8 бит
    Тип развёртки : Прогрессивная
    Метод сжатия : С потерями
    Бит/(Пиксели*Кадры) : 0.190
    Размер потока : 1, 14 Гбайт (86%)
    Библиотека кодирования : XviD 1.2.1 (UTC 2008-12-04)
    Аудио
    Идентификатор : 1
    Формат : AC-3
    Формат/Информация : Audio Coding 3
    Коммерческое название : Dolby Digital
    Идентификатор кодека : 2000
    Продолжительность : 2 ч. 9 м.
    Вид битрейта : Постоянный
    Битрейт : 192 Кбит/сек
    Каналы : 2 канала
    ChannelLayout : L R
    Частота : 48, 0 КГц
    Частота кадров : 31, 250 кадров/сек (1536 SPF)
    Метод сжатия : С потерями
    Размер потока : 178 Мбайт (13%)
    Выравнивание : Соединение по промежуткам
    Продолжительность промежутка : 32 мс. (0, 77 видеокадр)
    ServiceKind/String : Complete Main

    Скриншоты для ознакомления



    Все одноименные релизы в Клубе Время раздачи: 24/7 (до появления первых 3-5 скачавших)

    Онлайн видео Достать ножи



    Достать ножи/Knives Out (2019) DVDScr [AD]
    Рейтинг →
     (голосов: 1, оценка 4/5, голосовать можно 1 раз )

    Другие торренты по теме:

  • Достать Санту / Get Santa (2014) HDRip [EN] скачать через торрент бесплатно
  • Мирзакарим Норбеков | Интуиция дурака или как достать халявный миллион решений (2016) [FB2]
  • Достать девчонку / Get the Girl (2017) WEB-DLRip
  • Достать девчонку / Get the Girl (2017) WEB-DL [H.264 / 1080p-LQ]
  • Neighbours from Hell / Как достать соседа [1-2] (2017) [Multi / Ru] [macOS Native game]
  • Как достать босса [1-2] (2005-2006) [Ru] [macOS WineSkin]
  • Ева Никольская | Магическая академия. Достать василиска! (2017) [MP3]
  • Как достать соседа [1-2] (2003-2004) [Ru] [macOS WineSkin]


    • Комментарии (0):

      Информация

      Информация

        Посетители, находящиеся в группе Гости, не могут оставлять комментарии в данной новости.

        ↓ Меню




        ↓ Опрос

        Вы добавили сайт в закладки?
        Да
        Нет


        Популярное