.
Авторизация | Регистрация
bitok.xyz
» » Звериная ярость / Primal (2019) BDRemux [H.264 / 1080p] торрент скачать бесплатно


    Звериная ярость / Primal (2019) BDRemux [H.264 / 1080p] торрент скачать бесплатно

    Дата: 29-12-2019, 05:00 | .torrent скачали: 1

    Звериная ярость / Primal (2019) BDRemux [H.264 / 1080p]Производство: США/Daniel Grodnik Productions, The Wonderfilm Media Corporation, Imprint Entertainment
    Жанр: Боевик
    Режиссер: Ник Пауэлл
    Продюсер: Джефф Боулер, Дэниэл Гродник, Луильо Руис

    Актеры
    Николас Кейдж, Фамке Янссен, Кевин Дюран, Майкл Империоли, ЛаМоника Гаррет, Том Уокер, Рей Эрнандес, Джон Льюис, Браулио Кастильо мл., Сьюэлл Уитни

    Описание
    Охотник и зверолов Фрэнк Уолш промышляет редкими видами животных. Недавно он поймал в дождевых лесах Бразилии белого ягуара и теперь рассчитывает продать его в зоопарк за кругленькую сумму. Но кроме Фрэнка и его живого груза на борту корабля, следующего в Америку, оказывается опасный убийца, который должен предстать перед судом, и которого по медицинским показаниям нельзя перевозить на самолёте. В пути преступник сбегает и выпускает из клеток не только обезьян и ядовитых змей, но и агрессивного ягуара.

    Возраст: 18+ Зрителям, достигшим 18 лет
    Рейтинг MPAA: R Лицам до 17 обязательно присутствие взрослых
    Дата мировой премьеры: 6 ноября 2019
    Цифровой релиз: 24 декабря 2019, Вольга
    Релиз от: NNMClub
    Продолжительность: 01: 36: 51
    Качество видео: BDRemux 1080p
    Перевод: Дублированный(iTunes)
    Субтитры: Русские (Full), Английские (Full)
    Видео: AVC/H.264, 1920x1080, 25.9 Mbps, 23.976 fps
    Аудио 1 : AC-3, 6 ch, 384 Kbps | Русский
    Аудио 2 : TrueHD, 6 ch, 3224 Kbps | Английский
    Аудио 3 : AC-3, 6 ch, 640 Kbps | Английский
    General
    Unique ID : 15315520493948276590970996656534265883 (0xB85A975C5C8959C3A0088034FC9201B)
    Complete name : /Volumes/Promise 2/Primal.BDRemux.1080p.pk.mkv
    Format : Matroska
    Format version : Version 4
    File size : 20.4 GiB
    Duration : 1h 36mn
    Overall bit rate mode : Variable
    Overall bit rate : 30.2 Mbps
    Movie name : Primal 2019 BDRemux 1080p pk
    Encoded date : UTC 2019-12-28 00: 14: 21
    Writing application : mkvmerge v41.0.0 (\'Smarra\') 64-bit
    Writing library : libebml v1.3.9 + libmatroska v1.5.2
    Video
    ID : 1
    Format : AVC
    Format/Info : Advanced Video Codec
    Format profile : High@L4.1
    Format settings : CABAC/4 Ref Frames
    Format settings, CABAC : Yes
    Format settings, ReFrames : 4 frames
    Codec ID : V_MPEG4/ISO/AVC
    Duration : 1h 36mn
    Bit rate mode : Variable
    Bit rate : 25.9 Mbps
    Maximum bit rate : 32.0 Mbps
    Width : 1 920 pixels
    Height : 1 080 pixels
    Display aspect ratio : 16: 9
    Frame rate mode : Constant
    Frame rate : 23.976 (24000/1001) fps
    Color space : YUV
    Chroma subsampling : 4: 2: 0
    Bit depth : 8 bits
    Scan type : Progressive
    Bits/(Pixel*Frame) : 0.520
    Stream size : 17.5 GiB (86%)
    Language : English
    Default : Yes
    Forced : No
    Audio #1
    ID : 2
    Format : AC-3
    Format/Info : Audio Coding 3
    Commercial name : Dolby Digital
    Codec ID : A_AC3
    Duration : 1h 36mn
    Bit rate mode : Constant
    Bit rate : 384 Kbps
    Channel(s) : 6 channels
    Channel layout : L R C LFE Ls Rs
    Sampling rate : 48.0 KHz
    Frame rate : 31.250 fps (1536 SPF)
    Compression mode : Lossy
    Stream size : 266 MiB (1%)
    Title : Russian Dub iTunes
    Language : Russian
    Service kind : Complete Main
    Default : Yes
    Forced : No
    Audio #2
    ID : 3
    Format : MLP FBA
    Format/Info : Meridian Lossless Packing FBA
    Commercial name : Dolby TrueHD
    Codec ID : A_TRUEHD
    Duration : 1h 36mn
    Bit rate mode : Variable
    Bit rate : 3 224 Kbps
    Maximum bit rate : 4 530 Kbps
    Channel(s) : 6 channels
    Channel layout : L R C LFE Ls Rs
    Sampling rate : 48.0 KHz
    Frame rate : 1 200.000 fps (40 SPF)
    Compression mode : Lossless
    Stream size : 2.18 GiB (11%)
    Title : English Original TrueHD
    Language : English
    Default : No
    Forced : No
    Audio #3
    ID : 4
    Format : AC-3
    Format/Info : Audio Coding 3
    Commercial name : Dolby Digital
    Codec ID : A_AC3
    Duration : 1h 36mn
    Bit rate mode : Constant
    Bit rate : 640 Kbps
    Channel(s) : 6 channels
    Channel layout : L R C LFE Ls Rs
    Sampling rate : 48.0 KHz
    Frame rate : 31.250 fps (1536 SPF)
    Compression mode : Lossy
    Stream size : 443 MiB (2%)
    Title : English Original
    Language : English
    Service kind : Complete Main
    Default : No
    Forced : No
    Text #1
    ID : 5
    Format : UTF-8
    Codec ID : S_TEXT/UTF8
    Codec ID/Info : UTF-8 Plain Text
    Duration : 1h 31mn
    Bit rate : 87 bps
    Count of elements : 1041
    Stream size : 58.7 KiB (0%)
    Title : Russian full
    Language : Russian
    Default : No
    Forced : No
    Text #2
    ID : 6
    Format : UTF-8
    Codec ID : S_TEXT/UTF8
    Codec ID/Info : UTF-8 Plain Text
    Duration : 1h 33mn
    Bit rate : 48 bps
    Count of elements : 997
    Stream size : 33.4 KiB (0%)
    Title : English full
    Language : English
    Default : No
    Forced : No
    Menu
    00: 00: 00.000 : en: Глава 01
    00: 10: 15.114 : en: Глава 02
    00: 18: 51.464 : en: Глава 03
    00: 24: 53.492 : en: Глава 04
    00: 27: 28.313 : en: Глава 05
    00: 33: 18.830 : en: Глава 06
    00: 42: 31.048 : en: Глава 07
    00: 50: 53.550 : en: Глава 08
    01: 00: 48.186 : en: Глава 09
    01: 06: 42.498 : en: Глава 10
    01: 15: 28.190 : en: Глава 11
    01: 32: 29.711 : en: Глава 12

    Скриншоты для ознакомления



    Все одноименные релизы в Клубе
    Время раздачи: 24/7 (круглосуточно) (до появления первых 3-5 скачавших)

    Онлайн видео Звериная ярость



    Звериная ярость/Primal (2019) BDRemux [H.264/1080p]
    Рейтинг →
     (голосов: 1, оценка 4/5, голосовать можно 1 раз )

    Другие торренты по теме:

  • Звериная ярость / Primal (2019) BDRip [H.264 / 1080p]
  • Звериная ярость / Primal (2019) HDRip
  • Звериная ярость / Primal (2019) HDRip
  • Звериная ярость / Primal (2019) BDRip [H.264 / 720p-LQ]
  • Звериная ярость / Primal (2019) BDRip [H.264 / 1080p-LQ]


    • Комментарии (0):

      Информация

      Информация

        Посетители, находящиеся в группе Гости, не могут оставлять комментарии в данной новости.

        ↓ Меню




        ↓ Опрос

        Вы добавили сайт в закладки?
        Да
        Нет


        Популярное