.
Авторизация | Регистрация
bitok.xyz
» » Шоу уродов / Freakshow (2007) WEB-DL [H.264 / 1080p] торрент скачать бесплатно


    Шоу уродов / Freakshow (2007) WEB-DL [H.264 / 1080p] торрент скачать бесплатно

    Дата: 29-12-2019, 05:00 | .torrent скачали: 0

    Шоу уродов / Freakshow (2007) WEB-DL [H.264 / 1080p]Производство: США/Global Asylum
    Жанр: Ужасы
    Режиссер: Дрю Белл

    Актеры
    Кристофер Адамсон, Ребека Кочан, Роберт Пайк Дэниел, Дэйн Росселли, Джеффри Аллен, Вейн Болдуин, Дин Н. Аревало

    Описание

    Мистер Лон, хозяин заведения с необычным названием Шоу уродов. Артисты его цирка — люди с врождёнными патологиями, и сам Лон чувствует себя среди них своим. Но горе тому, кто обидит кого-то из членов этой большой и дружной семьи. По старой традиции обидчик будет наказан так, что потом позавидует самому жалкому уродцу…

    Возраст: 18+ (зрителям, достигшим 18 лет. запрещено для детей)
    Продолжительность: 01: 25: 56
    Качество видео: WEB-DL
    Перевод: Многоголосый профессиональный
    Субтитры: Английские
    Видео: AVC/H.264, 1920x1080р, ~12.5 Mbps
    Аудио #1: AC3, 6 ch, 384 kbps - Русский
    Аудио #2: E-AC3, 2 ch, 224 kbps - Английский
    General
    Unique ID : 218114550763022307482520812330746037176 (0xA417559F4F053DFCB318A3E622EAC3B8)
    Complete name : F: Новая папка (16)Freakshow.2007.AMZN.WEB-DL 1080p.mkv
    Format : Matroska
    Format version : Version 4
    File size : 7.88 GiB
    Duration : 1 h 25 min
    Overall bit rate mode : Variable
    Overall bit rate : 13.1 Mb/s
    Movie name : Freakshow.2007.AMZN.WEB-DL 1080p
    Encoded date : UTC 2019-12-28 09: 47: 43
    Writing application : mkvmerge v29.0.0 (\'Like It Or Not\') 64-bit
    Writing library : libebml v1.3.6 + libmatroska v1.4.9
    Video
    ID : 1
    Format : AVC
    Format/Info : Advanced Video Codec
    Format profile : High@L4
    Format settings : CABAC/4 Ref Frames
    Format settings, CABAC : Yes
    Format settings, RefFrames : 4 frames
    Codec ID : V_MPEG4/ISO/AVC
    Duration : 1 h 25 min
    Bit rate mode : Variable
    Bit rate : 12.5 Mb/s
    Maximum bit rate : 15.0 Mb/s
    Width : 1 920 pixels
    Height : 1 080 pixels
    Display aspect ratio : 16: 9
    Frame rate mode : Constant
    Frame rate : 23.976 (24000/1001) FPS
    Color space : YUV
    Chroma subsampling : 4: 2: 0
    Bit depth : 8 bits
    Scan type : Progressive
    Bits/(Pixel*Frame) : 0.252
    Stream size : 7.51 GiB (95%)
    Title : Freakshow.2007.AMZN.WEB-DL 1080p
    Writing library : x264 core 148 r2623 d5b2374
    Encoding settings : cabac=1/ref=4/deblock=1: -1: -1/analyse=0x3: 0x133/me=umh/subme=9/psy=1/psy_rd=1.00: 0.15/mixed_ref=1/me_range=24/chroma_me=1/trellis=2/8x8dct=1/cqm=0/deadzone=21, 11/fast_pskip=1/chroma_qp_offset=-3/threads=34/lookahead_threads=5/sliced_threads=0/nr=150/decimate=1/interlaced=0/bluray_compat=0/constrained_intra=0/bframes=8/b_pyramid=2/b_adapt=2/b_bias=0/direct=3/weightb=1/open_gop=0/weightp=2/keyint=120/keyint_min=61/scenecut=0/intra_refresh=0/rc_lookahead=120/rc=crf/mbtree=1/crf=18.0/qcomp=0.60/qpmin=0/qpmax=69/qpstep=4/vbv_maxrate=15000/vbv_bufsize=31250/crf_max=0.0/nal_hrd=vbr/filler=0/ip_ratio=1.40/aq=3: 1.00
    Default : Yes
    Forced : No
    Color range : Limited
    Color primaries : BT.709
    Transfer characteristics : BT.709
    Matrix coefficients : BT.709
    Audio #1
    ID : 2
    Format : AC-3
    Format/Info : Audio Coding 3
    Commercial name : Dolby Digital
    Codec ID : A_AC3
    Duration : 1 h 25 min
    Bit rate mode : Constant
    Bit rate : 384 kb/s
    Channel(s) : 6 channels
    Channel layout : L R C LFE Ls Rs
    Sampling rate : 48.0 kHz
    Frame rate : 31.250 FPS (1536 SPF)
    Bit depth : 16 bits
    Compression mode : Lossy
    Stream size : 234 MiB (3%)
    Language : Russian
    Service kind : Complete Main
    Default : Yes
    Forced : No
    Audio #2
    ID : 3
    Format : E-AC-3
    Format/Info : Enhanced AC-3
    Commercial name : Dolby Digital Plus
    Codec ID : A_EAC3
    Duration : 1 h 25 min
    Bit rate mode : Constant
    Bit rate : 224 kb/s
    Channel(s) : 2 channels
    Channel layout : L R
    Sampling rate : 48.0 kHz
    Frame rate : 31.250 FPS (1536 SPF)
    Compression mode : Lossy
    Stream size : 138 MiB (2%)
    Language : English
    Service kind : Complete Main
    Default : No
    Forced : No
    Text
    ID : 4
    Format : UTF-8
    Codec ID : S_TEXT/UTF8
    Codec ID/Info : UTF-8 Plain Text
    Duration : 1 h 25 min
    Bit rate : 52 b/s
    Count of elements : 1249
    Stream size : 32.7 KiB (0%)
    Title : SDH
    Language : English
    Default : No
    Forced : No

    Скриншоты для ознакомления




    Все одноименные релизы в Клубе
    Время раздачи: 24/7 (до появления первых 3-5 скачавших)

    Онлайн видео Шоу уродов



    Шоу уродов/Freakshow (2007) WEB-DL [H.264/1080p]
    Рейтинг →
     (голосов: 1, оценка 5/5, голосовать можно 1 раз )

    Другие торренты по теме:

  • Про уродов и людей (1998) WEB-DL [H.264 / 720p-LQ]
  • Про уродов и людей (1998) WEB-DL [H.264 / 1080p-LQ]
  • Цирк уродов / Freak Show (2017) WEB-DLRip [Xvid / 720p-LQ] [EN / RUS Sub]


    • Комментарии (0):

      Информация

      Информация

        Посетители, находящиеся в группе Гости, не могут оставлять комментарии в данной новости.

        ↓ Меню




        ↓ Опрос

        Вы добавили сайт в закладки?
        Да
        Нет


        Популярное