.
Авторизация | Регистрация
bitok.xyz
» » Воздушная тюрьма / Con Air (1997) BDRip [H.265 / 1080p] [10-bit] торрент скачать бесплатно


    Воздушная тюрьма / Con Air (1997) BDRip [H.265 / 1080p] [10-bit] торрент скачать бесплатно

    Дата: 29-12-2019, 05:00 | .torrent скачали: 0

    Воздушная тюрьма / Con Air (1997) BDRip [H.265 / 1080p] [10-bit]Производство: США/Touchstone Pictures, Jerry Bruckheimer Films, Kouf/Bigelow Productions
    Жанр: боевик, триллер, криминал
    Режиссер: Саймон Уэст

    Актеры
    Николас Кейдж, Джон Кьюсак, Джон Малкович, Винг Рэймс, Ник Чинланд, Стив Бушеми, Колм Мини, Рэйчел Тикотин, Дэвид Чаппелль, Майкелти Уильямсон, Дэнни Трехо

    Описание
    Воздушная тюрьма — транспортное подразделение полиции США, перевозящее особо опасных преступников. Одним из этих рейсов возвращается домой Кэмерон По, освобожденный из тюрьмы после 8 лет заключения. Он так долго ждал этого и ничто не должно остановить его на пути домой.

    Возраст: 18+ (зрителям, достигшим 18 лет. запрещено для детей)
    Рейтинг MPAA: R (лицам до 17 лет обязательно присутствие взрослого)
    Релиз от: HANNIBAL (HEVC-CLUB)
    Продолжительность: 01: 55: 25
    Качество видео: BDRip
    Перевод: Дублированный (Лицензия)
    Субтитры: Русские, английские
    Видео: HEVC/H.265, 1920x820, ~9888 Kbps
    Аудио 1: AC3, 6 ch, 448 Kbps - Русский, дублированный
    Аудио 2: AC3, 6 ch, 640 Kbps - Английский
    Общее
    Уникальный идентификатор : 306067315537291586631578537135911673100 (0xE6426BB97E35A8C911E12212581F1D0C)
    Полное имя : R: Con Air (1997) BDRip-HEVC 1080p 10 bit.mkv
    Формат : Matroska
    Версия формата : Version 4/Version 2
    Размер файла : 8, 85 Гбайт
    Продолжительность : 1 ч. 55 м.
    Общий поток : 11, 0 Мбит/сек
    Название фильма : Воздушная тюрьма
    Дата кодирования : UTC 2019-12-24 21: 23: 14
    Программа кодирования : mkvmerge v25.0.0 (\'Prog Noir\') 64-bit
    Библиотека кодирования : libebml v1.3.6 + libmatroska v1.4.9/Lavf57.71.100
    Обложка : Yes
    Attachments : poster.jpg/cover.jpg
    ACTORS : Николас Кейдж, Джон Кьюсак,
    COUNTRY : США
    DATE : 1997
    DIRECTOR : Саймон Уэст
    ENCODING_INFO : MPEGTS MKV Пользовательский/H264 X265 CRF 19.0 Slow
    GENRE : боевик, триллер, криминал
    HD_VIDEO : 1
    Язык : und
    MEDIA_TYPE : 9
    ORIGINAL_TITLE : Con Air
    Видео
    Идентификатор : 1
    Формат : HEVC
    Формат/Информация : High Efficiency Video Coding
    Профиль формата : Main10@L4.1@High
    Идентификатор кодека : V_MPEGH/ISO/HEVC
    Продолжительность : 1 ч. 55 м.
    Битрейт : 9888 Кбит/сек
    Ширина : 1920 пикселей
    Высота : 820 пикселей
    Соотношение сторон : 2, 35: 1
    Режим частоты кадров : Постоянный
    Частота кадров : 23, 976 (24000/1001) кадра/сек
    Цветовое пространство : YUV
    Субдискретизация насыщенности : 4: 2: 0
    Битовая глубина : 10 бит
    Бит/(Пиксели*Кадры) : 0.262
    Размер потока : 7, 97 Гбайт (90%)
    Библиотека кодирования : x265 3.1+7-147fb92c5ed5: Windowsclang 8.0.064 bit 10bit
    Настройки программы : cpuid=1111039/frame-threads=13/wpp/no-pmode/no-pme/no-psnr/no-ssim/log-level=3/input-csp=1/input-res=1920x820/interlace=0/total-frames=0/level-idc=41/high-tier=1/uhd-bd=0/ref=5/allow-non-conformance/no-repeat-t_heads/annexb/no-aud/no-hrd/info/hash=0/no-temporal-layers/open-gop/min-keyint=23/keyint=240/gop-lookahead=0/bframes=8/b-adapt=2/b-pyramid/bframe-bias=0/rc-lookahead=60/lookahead-slices=4/scenecut=60/radl=0/no-splice/no-intra-refresh/ctu=64/min-cu-size=8/rect/amp/max-tu-size=32/tu-inter-depth=4/tu-intra-depth=4/limit-tu=4/rdoq-level=2/dynamic-rd=0.00/no-ssim-rd/signhide/no-tskip/nr-intra=0/nr-inter=0/no-constrained-intra/no-strong-intra-smoothing/max-merge=5/limit-refs=3/limit-modes/me=3/subme=7/merange=57/temporal-mvp/no-hme/weightp/weightb/no-analyze-src-pics/deblock=-3: -3/no-sao/no-sao-non-deblock/rd=6/no-early-skip/no-rskip/no-fast-intra/no-tskip-fast/no-cu-lossless/no-b-intra/no-splitrd-skip/rdpenalty=0/psy-rd=2.00/psy-rdoq=1.00/no-rd-refine/no-lossless/cbqpoffs=0/crqpoffs=0/rc=crf/crf=19.0/qcomp=0.70/qpstep=4/stats-write=0/stats-read=0/vbv-maxrate=50000/vbv-bufsize=50000/vbv-init=0.9/crf-max=30.0/crf-min=0.0/ipratio=1.40/pbratio=1.30/aq-mode=2/aq-strength=1.00/no-cutree/zone-count=0/no-strict-cbr/qg-size=32/no-rc-grain/qpmax=69/qpmin=0/no-const-vbv/sar=1/overscan=0/videoformat=5/range=0/colorprim=1/transfer=1/colormatrix=1/chromaloc=0/display-window=0cll=0, 0/min-luma=0/max-luma=1023/log2-max-poc-lsb=8/vui-timing-info/vui-hrd-info/slices=1/no-opt-qp-pps/no-opt-ref-list-length-pps/no-multi-pass-opt-rps/scenecut-bias=0.05/no-opt-cu-delta-qp/no-aq-motion/no-hdr/no-hdr-opt/no-dhdr10-opt/no-idr-recovery-sei/analysis-reuse-level=5/scale-factor=0/refine-intra=0/refine-inter=0/refine-mv=0/refine-ctu-distortion=0/no-limit-sao/ctu-info=0/no-lowpass-dct/refine-analysis-type=259/copy-pic=1/max-ausize-factor=1.0/no-dynamic-refine/no-single-sei/no-hevc-aq/no-svt/no-field/qp-adaptation-range=1.00
    Default : Да
    Forced : Нет
    Цветовой диапазон : Limited
    Основные цвета : BT.709
    Характеристики трансфера : BT.709
    Коэффициенты матрицы : BT.709
    Аудио #1
    Идентификатор : 2
    Формат : AC-3
    Формат/Информация : Audio Coding 3
    Идентификатор кодека : A_AC3
    Продолжительность : 1 ч. 55 м.
    Вид битрейта : Постоянный
    Битрейт : 448 Кбит/сек
    Каналы : 6 каналов
    Расположение каналов : Front: L C R, Side: L R, LFE
    Частота : 48, 0 КГц
    Частота кадров : 31, 250 кадров/сек (1536 SPF)
    Битовая глубина : 16 бит
    Метод сжатия : С потерями
    Задержка видео : 6 мс.
    Размер потока : 369 Мбайт (4%)
    Заголовок : dub
    Язык : Russian
    ServiceKind/String : Complete Main
    Default : Да
    Forced : Нет
    Аудио #2
    Идентификатор : 3
    Формат : AC-3
    Формат/Информация : Audio Coding 3
    Идентификатор кодека : A_AC3
    Продолжительность : 1 ч. 55 м.
    Вид битрейта : Постоянный
    Битрейт : 640 Кбит/сек
    Каналы : 6 каналов
    Расположение каналов : Front: L C R, Side: L R, LFE
    Частота : 48, 0 КГц
    Частота кадров : 31, 250 кадров/сек (1536 SPF)
    Битовая глубина : 16 бит
    Метод сжатия : С потерями
    Размер потока : 528 Мбайт (6%)
    Заголовок : eng
    ServiceKind/String : Complete Main
    Default : Нет
    Forced : Нет
    Текст #1
    Идентификатор : 4
    Формат : UTF-8
    Идентификатор кодека : S_TEXT/UTF8
    Идентификатор кодека/Информация : UTF-8 Plain Text
    Продолжительность : 1 ч. 54 м.
    Битрейт : 72 бит/сек
    ElementCount : 1167
    Размер потока : 60, 9 Кбайт (0%)
    Заголовок : rus (full)
    Язык : Russian
    Default : Нет
    Forced : Нет
    Текст #2
    Идентификатор : 5
    Формат : UTF-8
    Идентификатор кодека : S_TEXT/UTF8
    Идентификатор кодека/Информация : UTF-8 Plain Text
    Продолжительность : 1 ч. 48 м.
    Битрейт : 61 бит/сек
    ElementCount : 1192
    Размер потока : 48, 6 Кбайт (0%)
    Заголовок : eng (full)
    Язык : English
    Default : Нет
    Forced : Нет
    Меню
    00: 00: 00.000 : : Глава 1
    00: 10: 59.408 : : Глава 2
    00: 26: 46.771 : : Глава 3
    00: 40: 20.334 : : Глава 4
    00: 53: 44.012 : : Глава 5
    01: 06: 22.144 : : Глава 6
    01: 24: 06.082 : : Глава 7
    01: 26: 43.740 : : Глава 8
    01: 35: 03.322 : : Глава 9
    01: 46: 00.479 : : Глава 10
    01: 51: 55.834 : : Глава 11


    Онлайн видео Воздушная тюрьма



    Воздушная тюрьма/Con Air (1997) BDRip [H.265/1080p] [10-bit]
    Рейтинг →
     (голосов: 1, оценка 3/5, голосовать можно 1 раз )

    Другие торренты по теме:

  • Воздушная тюрьма / Con Air (1997) BDRip [1080p] скачать через торрент бесплатно
  • Воздушная тюрьма / Con Air (1997) Blu-ray [1080p] скачать через торрент бесплатно
  • Воздушная тюрьма / Con Air (1997) BDRemux [VC-1 / 1080p]
  • Воздушная тюрьма / Con Air (1997) BDRip [H.265 / 1080p-LQ]
  • Воздушная тюрьма / Con Air (1997) BDRip [H.264 / 720p]


    • Комментарии (0):

      Информация

      Информация

        Посетители, находящиеся в группе Гости, не могут оставлять комментарии в данной новости.

        ↓ Меню




        ↓ Опрос

        Вы добавили сайт в закладки?
        Да
        Нет


        Популярное