.
Авторизация | Регистрация
bitok.xyz
» » Астерикс и Обеликс: Миссия Клеопатра / Asterix & Obelix: Mission Cleopatre (2002) BDRip [H.264 / 1080p] торрент скачать бесплатно


    Астерикс и Обеликс: Миссия Клеопатра / Asterix & Obelix: Mission Cleopatre (2002) BDRip [H.264 / 1080p] торрент скачать бесплатно

    Дата: 29-12-2019, 05:00 | .torrent скачали: 0

    Астерикс и Обеликс: Миссия Клеопатра / Asterix & Obelix: Mission Cleopatre (2002) BDRip [H.264 / 1080p]Производство: Франция, Германия/Pathe!, Canal+, Centre National de la Cinématographie (CNC), Chez Wam
    Жанр: фэнтези, комедия, приключения, семейный
    Режиссер: Ален Шаба

    Актеры
    Жерар Депардье, Кристиан Клавье, Жамель Деббуз, Моника Беллуччи, Ален Шаба, Клод Риш, Жерар Дармон, Эдуард Баэр, Дьедонне, Мусс Диуф

    Описание

    Великая Клеопатра заключила пари с римским императором Юлием Цезарем о том, что ее подданные смогут всего за три месяца построить грандиозный золотой дворец. Этой опасной чести был удостоен архитектор Нумеробис, которого — в случае неудачи — должны растерзать крокодилы.
    Нумеробис вызывает на помощь своего старого друга — друида Панорамикса с зельем, дарующим сверхъестественную силу. А веселые, находчивые Астерикс и Обеликс сопровождают старца в Египет, чтобы помешать проискам Цезаря, не желающего проигрывать Клеопатре.

    Возраст: 12+ (зрителям, достигшим 12 лет)
    Рейтинг MPAA: PG (рекомендуется присутствие родителей)
    Продолжительность: 01: 48: 01
    Качество видео: BDRip 1080p
    Перевод: Дублированный, многоголосый профессиональный
    Субтитры: русские
    Видео: AVC/H.264, 1920x816, ~13.1 mbps
    Аудио 1: AC3, 6 ch, 384 kbps, Русский (DUB)
    Аудио 2: AC3, 2 ch, 192 kbps, Русский (MVO)
    Аудио 3: AC3, 6 ch, 384 kbps, Французский
    Общее
    Уникальный идентификатор : 204512995128272369891643608958082807839 (0x99DBC527762AB41F8D2951934674F81F)
    Полное имя : D: FILMSZALIVAsterix..Obelix.Mission.Cleopatre.2002.BDRip.1080p.mkv
    Формат : Matroska
    Версия формата : Version 4
    Размер файла : 10, 6 Гбайт
    Продолжительность : 1 ч. 48 м.
    Общий поток : 14, 1 Мбит/сек
    Название фильма : ripped by -=mallaigne=-
    Дата кодирования : UTC 2019-12-28 05: 30: 52
    Программа кодирования : mkvmerge v8.2.0 (\'World of Adventure\') 64bit
    Библиотека кодирования : libebml v1.3.1 + libmatroska v1.4.2
    Видео
    Идентификатор : 1
    Формат : AVC
    Формат/Информация : Advanced Video Codec
    Профиль формата : High@L4.1
    Настройки формата : CABAC/4 Ref Frames
    Параметр CABAC формата : Да
    Параметр RefFrames формата : 4 кадра
    Идентификатор кодека : V_MPEG4/ISO/AVC
    Продолжительность : 1 ч. 48 м.
    Битрейт : 13, 1 Мбит/сек
    Ширина : 1920 пикселей
    Высота : 816 пикселей
    Соотношение сторон : 2, 35: 1
    Режим частоты кадров : Постоянный
    Частота кадров : 24, 000 кадра/сек
    Цветовое пространство : YUV
    Субдискретизация насыщенности : 4: 2: 0
    Битовая глубина : 8 бит
    Тип развёртки : Прогрессивная
    Бит/(Пиксели*Кадры) : 0.350
    Размер потока : 9, 91 Гбайт (93%)
    Библиотека кодирования : x264 core 118 r2085 8a62835
    Настройки программы : cabac=1/ref=4/deblock=1: -3: -3/analyse=0x3: 0x113/me=umh/subme=11/psy=1/psy_rd=1.00: 0.00/mixed_ref=1/me_range=32/chroma_me=1/trellis=2/8x8dct=1/cqm=0/deadzone=21, 11/fast_pskip=0/chroma_qp_offset=-2/threads=12/sliced_threads=0/nr=0/decimate=0/interlaced=0/bluray_compat=0/constrained_intra=0/bframes=10/b_pyramid=2/b_adapt=2/b_bias=0/direct=3/weightb=1/open_gop=0/weightp=2/keyint=250/keyint_min=24/scenecut=40/intra_refresh=0/rc=2pass/mbtree=0/bitrate=13143/ratetol=1.0/qcomp=0.60/qpmin=0/qpmax=69/qpstep=4/cplxblur=20.0/qblur=0.5/ip_ratio=1.40/pb_ratio=1.30/aq=1: 1.00
    Язык : French
    Default : Да
    Forced : Нет
    Цветовой диапазон : Limited
    Основные цвета : BT.709
    Характеристики трансфера : BT.709
    Коэффициенты матрицы : BT.709
    Аудио #1
    Идентификатор : 2
    Формат : AC-3
    Формат/Информация : Audio Coding 3
    Коммерческое название : Dolby Digital
    Идентификатор кодека : A_AC3
    Продолжительность : 1 ч. 48 м.
    Вид битрейта : Постоянный
    Битрейт : 384 Кбит/сек
    Каналы : 6 каналов
    ChannelLayout : L R C LFE Ls Rs
    Частота : 48, 0 КГц
    Частота кадров : 31, 250 кадров/сек (1536 SPF)
    Метод сжатия : С потерями
    Размер потока : 297 Мбайт (3%)
    Заголовок : Dub AC3 6ch 384kbps
    Язык : Russian
    ServiceKind/String : Complete Main
    Default : Да
    Forced : Нет
    Аудио #2
    Идентификатор : 3
    Формат : AC-3
    Формат/Информация : Audio Coding 3
    Коммерческое название : Dolby Digital
    Идентификатор кодека : A_AC3
    Продолжительность : 1 ч. 47 м.
    Вид битрейта : Постоянный
    Битрейт : 192 Кбит/сек
    Каналы : 2 канала
    ChannelLayout : L R
    Частота : 48, 0 КГц
    Частота кадров : 31, 250 кадров/сек (1536 SPF)
    Метод сжатия : С потерями
    Размер потока : 148 Мбайт (1%)
    Заголовок : RUS MVO
    Язык : Russian
    ServiceKind/String : Complete Main
    Default : Нет
    Forced : Нет
    Аудио #3
    Идентификатор : 4
    Формат : AC-3
    Формат/Информация : Audio Coding 3
    Коммерческое название : Dolby Digital
    Идентификатор кодека : A_AC3
    Продолжительность : 1 ч. 48 м.
    Вид битрейта : Постоянный
    Битрейт : 384 Кбит/сек
    Каналы : 6 каналов
    ChannelLayout : L R C LFE Ls Rs
    Частота : 48, 0 КГц
    Частота кадров : 31, 250 кадров/сек (1536 SPF)
    Метод сжатия : С потерями
    Размер потока : 297 Мбайт (3%)
    Заголовок : Original AC3 6ch 384kbps
    Язык : French
    ServiceKind/String : Complete Main
    Default : Нет
    Forced : Нет
    Текст #1
    Идентификатор : 5
    Формат : UTF-8
    Идентификатор кодека : S_TEXT/UTF8
    Идентификатор кодека/Информация : UTF-8 Plain Text
    Продолжительность : 1 ч. 46 м.
    Битрейт : 106 бит/сек
    ElementCount : 1313
    Размер потока : 82, 7 Кбайт (0%)
    Заголовок : rus dub
    Язык : Russian
    Default : Да
    Forced : Нет
    Текст #2
    Идентификатор : 6
    Формат : UTF-8
    Идентификатор кодека : S_TEXT/UTF8
    Идентификатор кодека/Информация : UTF-8 Plain Text
    Продолжительность : 1 ч. 46 м.
    Битрейт : 106 бит/сек
    ElementCount : 1313
    Размер потока : 82, 7 Кбайт (0%)
    Заголовок : rus mvo
    Язык : Russian
    Default : Нет
    Forced : Нет
    Меню
    00: 00: 00.000 : fr: (безымянный)
    00: 04: 27.375 : fr: (безымянный)
    00: 09: 58.291 : fr: (безымянный)
    00: 13: 53.666 : fr: (безымянный)
    00: 19: 14.125 : fr: (безымянный)
    00: 24: 49.375 : fr: (безымянный)
    00: 31: 04.083 : fr: (безымянный)
    00: 35: 07.625 : fr: (безымянный)
    00: 38: 57.833 : fr: (безымянный)
    00: 42: 57.083 : fr: (безымянный)
    00: 46: 00.625 : fr: (безымянный)
    00: 51: 45.458 : fr: (безымянный)
    00: 58: 06.375 : fr: (безымянный)
    01: 02: 52.750 : fr: (безымянный)
    01: 08: 53.458 : fr: (безымянный)
    01: 13: 41.291 : fr: (безымянный)
    01: 18: 28.791 : fr: (безымянный)
    01: 23: 42.416 : fr: (безымянный)
    01: 30: 48.833 : fr: (безымянный)
    01: 36: 48.500 : fr: (безымянный)
    01: 40: 47.125 : fr: (безымянный)
    01: 42: 14.458 : fr: (безымянный)

    Скриншоты для ознакомления



    Все одноименные релизы в Клубе
    Время раздачи: c 5 до 19 мск (до появления первых 3-5 скачавших)

    Онлайн видео Астерикс и Обеликс: Миссия Клеопатра



    Астерикс и Обеликс: Миссия Клеопатра/Asterix & Obelix: Mission Cleopatre (2002) BDRip [H.264/1080p]
    Рейтинг →
     (голосов: 1, оценка 4/5, голосовать можно 1 раз )

    Другие торренты по теме:

  • Астерикс и Обеликс. Коллекция мультфильмов / Asterix and Obelix (1967 - 2014) BDRip [H.265 / 1080p] [10-bit]
  • Астерикс и Обеликс / Asterix & Obelix - Collectors Edition (1999-2012) BDRip [H.265 / 1080p] [10-bit]
  • Астерикс и Обеликс / Astérix et Obélix (1999-2012) BDRip [H.264 / 720p] [Квадрология]
  • Астерикс и Обеликс: Миссия Клеопатра / Asterix & Obelix: Mission Cleopatre (2002) BDRemux [H.264 / 1080p]
  • Астерикс и Обеликс: Миссия Клеопатра / Asterix & Obelix: Mission Cleopatre (2002) BDRip [H.264]
  • Астерикс и Обеликс: Миссия Клеопатра / Asterix & Obelix: Mission Cleopatre (2002) BDRip


    • Комментарии (0):

      Информация

      Информация

        Посетители, находящиеся в группе Гости, не могут оставлять комментарии в данной новости.

        ↓ Меню




        ↓ Опрос

        Вы добавили сайт в закладки?
        Да
        Нет


        Популярное