.
Авторизация | Регистрация
bitok.xyz
» » Изображая жертву (2006) WEBRip [H.264 / 1080p-LQ] [PR] торрент скачать бесплатно


    Изображая жертву (2006) WEBRip [H.264 / 1080p-LQ] [PR] торрент скачать бесплатно

    Дата: 29-12-2019, 05:00 | .torrent скачали: 0

    Изображая жертву (2006) WEBRip [H.264 / 1080p-LQ] [PR]Производство: Россия/Новые люди
    Жанр: Комедия
    Режиссер: Кирилл Серебренников

    Актеры
    Юрий Чурсин, Виталий Хаев, Александр Ильин (младший), Марат Башаров, Ольга Демидова, Анна Михалкова, Фёдор Добронравов, Марина Голуб, Андрей Фомин

    Описание

    Комедия абсурда по одноименной пьесе братьев Пресняковых.
    Молодой человек Валя, закончив университет, ради заработка устраивается в милицию, где изображает жертв преступлений во время следственных экспериментов. Следственная группа в составе харизматичного капитана, вооруженной видеокамерой прапорщицы Люды и туповатого сержанта ежедневно вывозит подсудимых на места преступлений, где положено восстановить картину трагедии...

    Возраст: 16+ (зрителям, достигшим 16 лет)
    Продолжительность: 01: 40: 01
    Качество видео: WEBRip
    Субтитры: Отсутствуют
    Видео: AVC/H.264, 1920x1044, ~5000 Kbps
    Аудио #1: AC3, 6 ch, 384 Kbps - русский
    Аудио #2: AAC, 2 ch, 317 Kbps - русский
    Общее
    Уникальный идентификатор : 115889332378583014829875673282854889208 (0x572F793A547DB8D03DC2599A8671A6F8)
    Полное имя : G: Изображая жертву (2006).by.Алехаndr .mkv
    Формат : Matroska
    Версия формата : Version 4
    Размер файла : 3, 98 Гбайт
    Продолжительность : 1 ч. 40 м.
    Общий поток : 5702 Кбит/сек
    Название фильма : Изображая жертву (2006).by.Алехаndr
    Дата кодирования : UTC 2019-12-28 09: 41: 53
    Программа кодирования : mkvmerge v41.0.0 (\'Smarra\') 32-bit
    Библиотека кодирования : libebml v1.3.9 + libmatroska v1.5.2/Lavf58.20.100
    Видео
    Идентификатор : 1
    Формат : AVC
    Формат/Информация : Advanced Video Codec
    Профиль формата : High@L4
    Настройки формата : CABAC/3 Ref Frames
    Параметр CABAC формата : Да
    Параметр RefFrames формата : 3 кадра
    Идентификатор кодека : V_MPEG4/ISO/AVC
    Продолжительность : 1 ч. 40 м.
    Битрейт : 5000 Кбит/сек
    Ширина : 1920 пикселей
    Высота : 1044 пикселя
    Соотношение сторон : 1, 85: 1
    Режим частоты кадров : Постоянный
    Частота кадров : 25, 000 кадров/сек
    Цветовое пространство : YUV
    Субдискретизация насыщенности : 4: 2: 0
    Битовая глубина : 8 бит
    Тип развёртки : Прогрессивная
    Бит/(Пиксели*Кадры) : 0.100
    Размер потока : 3, 49 Гбайт (88%)
    Библиотека кодирования : x264 core 142 r2479 dd79a61
    Настройки программы : cabac=1/ref=3/deblock=1: 0: 0/analyse=0x3: 0x133/me=hex/subme=6/psy=1/psy_rd=1.00: 0.00/mixed_ref=0/me_range=16/chroma_me=1/trellis=1/8x8dct=1/cqm=0/deadzone=21, 11/fast_pskip=0/chroma_qp_offset=-2/threads=72/lookahead_threads=8/sliced_threads=0/nr=0/decimate=1/interlaced=0/bluray_compat=0/constrained_intra=0/bframes=3/b_pyramid=1/b_adapt=2/b_bias=0/direct=1/weightb=1/open_gop=0/weightp=2/keyint=96/keyint_min=49/scenecut=0/intra_refresh=0/rc_lookahead=40/rc=2pass/mbtree=1/bitrate=5000/ratetol=1.0/qcomp=0.60/qpmin=0/qpmax=69/qpstep=4/cplxblur=20.0/qblur=0.5/ip_ratio=1.40/aq=1: 1.00
    Default : Да
    Forced : Нет
    Цветовой диапазон : Limited
    Основные цвета : BT.709
    Характеристики трансфера : BT.709
    Коэффициенты матрицы : BT.709
    Аудио #1
    Идентификатор : 2
    Формат : AC-3
    Формат/Информация : Audio Coding 3
    Коммерческое название : Dolby Digital
    Идентификатор кодека : A_AC3
    Продолжительность : 1 ч. 40 м.
    Вид битрейта : Постоянный
    Битрейт : 384 Кбит/сек
    Каналы : 6 каналов
    ChannelLayout : L R C LFE Ls Rs
    Частота : 48, 0 КГц
    Частота кадров : 31, 250 кадров/сек (1536 SPF)
    Метод сжатия : С потерями
    Задержка видео : -26 мс.
    Размер потока : 275 Мбайт (7%)
    Язык : Russian
    ServiceKind/String : Complete Main
    Default : Да
    Forced : Нет
    Аудио #2
    Идентификатор : 3
    Формат : AAC LC
    Формат/Информация : Advanced Audio Codec Low Complexity
    Идентификатор кодека : A_AAC-2
    Продолжительность : 1 ч. 40 м.
    Битрейт : 317 Кбит/сек
    Каналы : 2 канала
    ChannelLayout : L R
    Частота : 48, 0 КГц
    Частота кадров : 46, 875 кадров/сек (1024 SPF)
    Метод сжатия : С потерями
    Задержка видео : -80 мс.
    Размер потока : 227 Мбайт (6%)
    Default : Нет
    Forced : Нет

    Скриншоты для ознакомления



    Все одноименные релизы в Клубе
    Время раздачи: 24/7 (круглосуточно) (до появления первых 3-5 скачавших)

    Онлайн видео Изображая жертву (2006) WEBRip [H.264



    Изображая жертву (2006) WEBRip [H.264/1080p-LQ] [PR]
    Рейтинг →
     (голосов: 1, оценка 4/5, голосовать можно 1 раз )

    Другие торренты по теме:

  • Бесогон ТВ. Изображая жертву (17.11.2017) WEBRip [H.264]
  • Бесогон ТВ. Изображая жертву (17.11.2017) WEBRip [H.264 / 1080p-LQ]


    • Комментарии (0):

      Информация

      Информация

        Посетители, находящиеся в группе Гости, не могут оставлять комментарии в данной новости.

        ↓ Меню




        ↓ Опрос

        Вы добавили сайт в закладки?
        Да
        Нет


        Популярное