.
Авторизация | Регистрация
bitok.xyz
» » Санта Клаус / The Santa Clause (1994, 2002, 2006) BDRip [H.265 / 1080p] [10-bit] [Трилогия] торрент скачать бесплатно


    Санта Клаус / The Santa Clause (1994, 2002, 2006) BDRip [H.265 / 1080p] [10-bit] [Трилогия] торрент скачать бесплатно

    Дата: 29-12-2019, 05:00 | .torrent скачали: 0

    Санта Клаус / The Santa Clause (1994, 2002, 2006) BDRip [H.265 / 1080p] [10-bit] [Трилогия]Производство: США/Walt Disney Pictures, Hollywood Pictures, Outlaw Productions (I), Boxing Cat Films
    Жанр: фэнтези, драма, комедия, семейный, приключения
    Режиссер: Джон Паскуин, Майкл Лембек

    Актеры
    Тим Аллен, Джадж Райнхолд, Венди Крюсон, Эрик Ллойд, Дэвид Крамхолц, Ларри Бранденбург, Мэри Гросс, Paige Tamada, Питер Бойл, Джудит Скотт, Элизабет Митчелл, Спенсер Бреслин, Лилиана Муми, Даниэль Вудман, Арт ЛаФлёр, Мартин Шорт

    Описание
    В рождественскую ночь продавец игрушек Скотт Кэлвин случайно сталкивает со своей крыши странного старичка. К его невероятному удивлению, там же он обнаруживает припаркованного северного оленя. Пока незнакомец беспомощно барахтается в сугробе, любопытный Скотт вскакивает в седло — и оказывается на Северном Полюсе, где главный эльф убеждает его занять место Санта Клауса, который в данный момент лежит возле дома Кэлвина и не может выполнять свои обязанности.....
    Продолжительность: 01: 37: 08/01: 44: 22/01: 31: 56
    Качество видео: BDRip
    Перевод: Профессиональный многоголосый
    Субтитры: Русские, английские
    Видео: HEVC/H.265, 1920x1040, ~ 9394 Кbps - 12, 9 Мbps
    Аудио 1: AC3, 2 ch, 320/192 Kbps - Русский
    Аудио 2: AC3, 6 ch, 448/640 Kbps - АнглийскийСанта Клаус/The Santa Clause (1994) BDRip
    Производство: США/Walt Disney Pictures, Hollywood Pictures, Outlaw Productions (I)
    Жанр: фэнтези, драма, комедия, семейный
    Режиссер: Джон Паскуин

    Актеры
    Тим Аллен, Джадж Райнхолд, Венди Крюсон, Эрик Ллойд, Дэвид Крамхолц, Ларри Бранденбург, Мэри Гросс, Paige Tamada, Питер Бойл, Джудит Скотт

    Описание
    В рождественскую ночь продавец игрушек Скотт Кэлвин случайно сталкивает со своей крыши странного старичка. К его невероятному удивлению, там же он обнаруживает припаркованного северного оленя. Пока незнакомец беспомощно барахтается в сугробе, любопытный Скотт вскакивает в седло — и оказывается на Северном Полюсе, где главный эльф убеждает его занять место Санта Клауса, который в данный момент лежит возле дома Кэлвина и не может выполнять свои обязанности.

    Возраст: 6+ (зрителям, достигшим 6 лет)
    Рейтинг MPAA: PG (рекомендуется присутствие родителей)
    Релиз от: Mr. Fox (HEVC-CLUB)
    Продолжительность: 01: 37: 08
    Качество видео: BDRip
    Перевод: Многоголосый профессиональный
    Субтитры: Русские, английские (SDH)
    Видео: HEVC/H.265, 1920x1040, ~12, 0 Мbps
    Аудио 1: AC3, 2 ch, 320 Kbps - Русский, MVO
    Аудио 2: AC3, 6 ch, 448 Kbps - Английский
    Общее
    Уникальный идентификатор : 56686874355004723660061821585711080805 (0x2AA57EB0491152A99806799D9F72A565)
    Полное имя : R: The Santa Clause1. The Santa Clause (1994) BDRip 1080p HEVC.mkv
    Формат : Matroska
    Версия формата : Version 4/Version 2
    Размер файла : 8, 66 Гбайт
    Продолжительность : 1 ч. 37 м.
    Общий поток : 12, 8 Мбит/сек
    Название фильма : The Santa Clause (1994)
    Дата кодирования : UTC 2019-12-17 18: 59: 00
    Программа кодирования : mkvmerge v40.0.0 (\'Old Town Road + Pony\') 64-bit
    Библиотека кодирования : libebml v1.3.9 + libmatroska v1.5.2
    Обложка : Yes
    Attachments : cover.jpg
    Видео
    Идентификатор : 1
    Формат : HEVC
    Формат/Информация : High Efficiency Video Coding
    Профиль формата : Main10@L4.1@High
    Идентификатор кодека : V_MPEGH/ISO/HEVC
    Продолжительность : 1 ч. 37 м.
    Битрейт : 12, 0 Мбит/сек
    Ширина : 1920 пикселей
    Высота : 1040 пикселей
    Соотношение сторон : 1, 85: 1
    Режим частоты кадров : Постоянный
    Частота кадров : 23, 976 (24000/1001) кадра/сек
    Цветовое пространство : YUV
    Субдискретизация насыщенности : 4: 2: 0
    Битовая глубина : 10 бит
    Бит/(Пиксели*Кадры) : 0.251
    Размер потока : 8, 14 Гбайт (94%)
    Библиотека кодирования : x265 3.2.1+1-b5c86a64bbbe: WindowsMSVC 192364 bit 10bit
    Настройки программы : cpuid=1111039/frame-threads=3/numa-pools=12/wpp/no-pmode/no-pme/no-psnr/no-ssim/log-level=2/input-csp=1/input-res=1920x1040/interlace=0/total-frames=133749/level-idc=41/high-tier=1/uhd-bd=0/ref=5/no-allow-non-conformance/no-repeat-t_heads/annexb/no-aud/no-hrd/info/hash=0/no-temporal-layers/open-gop/min-keyint=23/keyint=240/gop-lookahead=0/bframes=16/b-adapt=2/b-pyramid/bframe-bias=0/rc-lookahead=60/lookahead-slices=4/scenecut=40/radl=0/no-splice/no-intra-refresh/ctu=32/min-cu-size=8/rect/amp/max-tu-size=32/tu-inter-depth=4/tu-intra-depth=4/limit-tu=1/rdoq-level=2/dynamic-rd=0.00/no-ssim-rd/signhide/no-tskip/nr-intra=0/nr-inter=0/no-constrained-intra/no-strong-intra-smoothing/max-merge=4/limit-refs=2/limit-modes/me=3/subme=7/merange=57/temporal-mvp/no-hme/weightp/weightb/no-analyze-src-pics/deblock=-3: -3/no-sao/no-sao-non-deblock/rd=6/selective-sao=0/no-early-skip/no-rskip/no-fast-intra/no-tskip-fast/no-cu-lossless/no-b-intra/no-splitrd-skip/rdpenalty=0/psy-rd=2.00/psy-rdoq=1.00/no-rd-refine/no-lossless/cbqpoffs=0/crqpoffs=0/rc=crf/crf=20.5/qcomp=0.65/qpstep=4/stats-write=0/stats-read=0/vbv-maxrate=50000/vbv-bufsize=50000/vbv-init=0.9/crf-max=0.0/crf-min=0.0/ipratio=1.40/pbratio=1.30/aq-mode=1/aq-strength=1.00/no-cutree/zone-count=0/no-strict-cbr/qg-size=32/no-rc-grain/qpmax=69/qpmin=0/no-const-vbv/sar=1/overscan=0/videoformat=5/range=0/colorprim=1/transfer=1/colormatrix=1/chromaloc=0/display-window=0/cll=0, 0/min-luma=0/max-luma=1023/log2-max-poc-lsb=8/vui-timing-info/vui-hrd-info/slices=1/no-opt-qp-pps/no-opt-ref-list-length-pps/no-multi-pass-opt-rps/scenecut-bias=0.05/no-opt-cu-delta-qp/no-aq-motion/no-hdr/no-hdr-opt/no-dhdr10-opt/no-idr-recovery-sei/analysis-reuse-level=5/scale-factor=0/refine-intra=0/refine-inter=0/refine-mv=1/refine-ctu-distortion=0/no-limit-sao/ctu-info=0/no-lowpass-dct/refine-analysis-type=0/copy-pic=1/max-ausize-factor=1.0/no-dynamic-refine/no-single-sei/no-hevc-aq/no-svt/no-field/qp-adaptation-range=1.00
    Default : Да
    Forced : Нет
    Цветовой диапазон : Limited
    Основные цвета : BT.709
    Характеристики трансфера : BT.709
    Коэффициенты матрицы : BT.709
    Аудио #1
    Идентификатор : 2
    Формат : AC-3
    Формат/Информация : Audio Coding 3
    Идентификатор кодека : A_AC3
    Продолжительность : 1 ч. 37 м.
    Вид битрейта : Постоянный
    Битрейт : 320 Кбит/сек
    Каналы : 2 канала
    Расположение каналов : Front: L R
    Частота : 48, 0 КГц
    Частота кадров : 31, 250 кадров/сек (1536 SPF)
    Битовая глубина : 16 бит
    Метод сжатия : С потерями
    Размер потока : 222 Мбайт (3%)
    Заголовок : MVO
    Язык : Russian
    ServiceKind/String : Complete Main
    Default : Да
    Forced : Да
    Аудио #2
    Идентификатор : 3
    Формат : AC-3
    Формат/Информация : Audio Coding 3
    Идентификатор кодека : A_AC3
    Продолжительность : 1 ч. 37 м.
    Вид битрейта : Постоянный
    Битрейт : 448 Кбит/сек
    Каналы : 6 каналов
    Расположение каналов : Front: L C R, Side: L R, LFE
    Частота : 48, 0 КГц
    Частота кадров : 31, 250 кадров/сек (1536 SPF)
    Битовая глубина : 16 бит
    Метод сжатия : С потерями
    Размер потока : 311 Мбайт (4%)
    Заголовок : ORIGINAL
    Язык : English
    ServiceKind/String : Complete Main
    Default : Нет
    Forced : Нет
    Текст #1
    Идентификатор : 4
    Формат : UTF-8
    Идентификатор кодека : S_TEXT/UTF8
    Идентификатор кодека/Информация : UTF-8 Plain Text
    Продолжительность : 1 ч. 32 м.
    Битрейт : 82 бит/сек
    ElementCount : 1522
    Размер потока : 56, 0 Кбайт (0%)
    Заголовок : FULL
    Язык : Russian
    Default : Нет
    Forced : Нет
    Текст #2
    Идентификатор : 5
    Формат : UTF-8
    Идентификатор кодека : S_TEXT/UTF8
    Идентификатор кодека/Информация : UTF-8 Plain Text
    Продолжительность : 1 ч. 36 м.
    Битрейт : 70 бит/сек
    ElementCount : 1534
    Размер потока : 50, 0 Кбайт (0%)
    Заголовок : FULL (SDH)
    Язык : English
    Default : Нет
    Forced : Нет
    Меню
    00: 00: 00.000 : en: Chapter 01
    00: 06: 51.828 : en: Chapter 02
    00: 12: 48.434 : en: Chapter 03
    00: 17: 21.290 : en: Chapter 04
    00: 26: 58.325 : en: Chapter 05
    00: 32: 11.220 : en: Chapter 06
    00: 39: 43.881 : en: Chapter 07
    00: 44: 10.648 : en: Chapter 08
    00: 49: 39.101 : en: Chapter 09
    00: 57: 55.013 : en: Chapter 10
    01: 04: 55.600 : en: Chapter 11
    01: 11: 26.031 : en: Chapter 12
    01: 13: 13.222 : en: Chapter 13
    01: 17: 12.628 : en: Chapter 14
    01: 20: 17.270 : en: Chapter 15
    01: 23: 04.354 : en: Chapter 16
    01: 33: 01.409 : en: Chapter 17
    01: 37: 08.030 : en: Chapter 18


    Онлайн видео Санта Клаус



    Санта Клаус/The Santa Clause (1994, 2002, 2006) BDRip [H.265/1080p] [10-bit] [Трилогия]
    Рейтинг →
     (голосов: 1, оценка 3/5, голосовать можно 1 раз )

    Другие торренты по теме:

  • Санта Клаус 3 Хозяин полюса / Santa Clause 3 Escape Clause (2006) BDRemux [1080p]
  • Растровый клипарт - Весельчак Санта Клаус [JPG]
  • Санта Клаус / The Santa Clause (1994) BDRip [H.264 / 720p]
  • Санта Клаус 2 / The Santa Clause 2 (2002) BDRip [H.264 / 720p]
  • Санта Клаус / The Santa Clause (1994, 2002, 2006) BDRip [Трилогия]


    • Комментарии (0):

      Информация

      Информация

        Посетители, находящиеся в группе Гости, не могут оставлять комментарии в данной новости.

        ↓ Меню




        ↓ Опрос

        Вы добавили сайт в закладки?
        Да
        Нет


        Популярное