.
Авторизация | Регистрация
bitok.xyz
» » Дюпон Лажуа (Это случилось в праздник) / Dupont Lajoie (1975) DVDRip торрент скачать бесплатно


    Дюпон Лажуа (Это случилось в праздник) / Dupont Lajoie (1975) DVDRip торрент скачать бесплатно

    Дата: 29-12-2019, 05:00 | .torrent скачали: 1

    Дюпон Лажуа (Это случилось в праздник) / Dupont Lajoie (1975) DVDRipПроизводство: Франция/Sofracima
    Жанр: Драма
    Режиссер: Ив Буассе
    Продюсер: Жизель Ребильон, Катрин Винтер

    Актеры
    Жан Карме, Пьер Торнад, Жан Буиз, Мишель Пейрелон, Жинетт Гарсен, Паскаль Робертс, Жан-Пьер Марьель, Робер Кастель, Пино Карузо, Изабель Юппер

    Описание

    В один из летних отпусков мсье Лажуа положил глаз на повзрослевшую Брижитт, подружку сына. Встретив её загорающей голой в уединенном месте, он не выдерживает, насилует и убивает девушку…

    Релиз от: sss777sss
    Продолжительность: 01: 36: 52
    Качество видео: DVDRip
    Перевод: Дублированный (Мосфильм, со вставками одноголосого закадрового)
    Субтитры: Русские, английские - отдельными файлами
    Видео: Xvid, 640х400, ~1757 Kbps
    Аудио 1: AC3, 2 ch, 192 Kbps - Русский
    Аудио 2: AC3, 2 ch, 192 Kbps - ФранцузскийGeneral
    Complete name : Dupont Lajoie 1975Dupont Lajoie 1975.avi
    Format : AVI
    Format/Info : Audio Video Interleave
    File size : 1.46 GiB
    Duration : 1 h 36 min
    Overall bit rate : 2 155 kb/s
    Writing application : VirtualDubMod 1.5.4.1 (build 2066/release)
    Writing library : VirtualDubMod build 2066/release
    Video
    ID : 0
    Format : MPEG-4 Visual
    Format profile : Advanced Simple@L5
    Format settings : BVOP1/Custom Matrix
    Format settings, BVOP : 1
    Format settings, QPel : No
    Format settings, GMC : No warppoints
    Format settings, Matrix : Custom
    Codec ID : XVID
    Codec ID/Hint : XviD
    Duration : 1 h 36 min
    Bit rate : 1 757 kb/s
    Width : 640 pixels
    Height : 400 pixels
    Display aspect ratio : 16: 10
    Frame rate : 25.000 FPS
    Color space : YUV
    Chroma subsampling : 4: 2: 0
    Bit depth : 8 bits
    Scan type : Progressive
    Compression mode : Lossy
    Bits/(Pixel*Frame) : 0.274
    Stream size : 1.19 GiB (82%)
    Writing library : XviD 73
    Audio #1
    ID : 1
    Format : AC-3
    Format/Info : Audio Coding 3
    Commercial name : Dolby Digital
    Codec ID : 2000
    Duration : 1 h 36 min
    Bit rate mode : Constant
    Bit rate : 192 kb/s
    Channel(s) : 2 channels
    Channel layout : L R
    Sampling rate : 48.0 kHz
    Frame rate : 31.250 FPS (1536 SPF)
    Compression mode : Lossy
    Stream size : 133 MiB (9%)
    Alignment : Split across interleaves
    Interleave, duration : 40 ms (1.00 video frame)
    Interleave, preload duratio : 500 ms
    Service kind : Complete Main
    Audio #2
    ID : 2
    Format : AC-3
    Format/Info : Audio Coding 3
    Commercial name : Dolby Digital
    Codec ID : 2000
    Duration : 1 h 36 min
    Bit rate mode : Constant
    Bit rate : 192 kb/s
    Channel(s) : 2 channels
    Channel layout : L R
    Sampling rate : 48.0 kHz
    Frame rate : 31.250 FPS (1536 SPF)
    Compression mode : Lossy
    Stream size : 133 MiB (9%)
    Alignment : Split across interleaves
    Interleave, duration : 40 ms (1.00 video frame)
    Interleave, preload duratio : 500 ms
    Service kind : Complete Main


    Онлайн видео Дюпон Лажуа (Это случилось в праздник)



    Дюпон Лажуа (Это случилось в праздник)/Dupont Lajoie (1975) DVDRip
    Рейтинг →
     (голосов: 1, оценка 3/5, голосовать можно 1 раз )

    Другие торренты по теме:



      Комментарии (0):

      Информация

      Информация

        Посетители, находящиеся в группе Гости, не могут оставлять комментарии в данной новости.

        ↓ Меню




        ↓ Опрос

        Вы добавили сайт в закладки?
        Да
        Нет


        Популярное