.
Авторизация | Регистрация
bitok.xyz
» » Астерикс и Обеликс: Миссия Клеопатра / Asterix & Obelix: Mission Cleopatre (2002) BDRip [H.264] торрент скачать бесплатно


    Астерикс и Обеликс: Миссия Клеопатра / Asterix & Obelix: Mission Cleopatre (2002) BDRip [H.264] торрент скачать бесплатно

    Дата: 29-12-2019, 05:00 | .torrent скачали: 0

    Астерикс и Обеликс: Миссия Клеопатра / Asterix & Obelix: Mission Cleopatre (2002) BDRip [H.264]Производство: Франция, Германия/Pathe!, Canal+, Centre National de la Cinématographie (CNC), Chez Wam
    Жанр: фэнтези, комедия, приключения, семейный
    Режиссер: Ален Шаба

    Актеры
    Жерар Депардье, Кристиан Клавье, Жамель Деббуз, Моника Беллуччи, Ален Шаба, Клод Риш, Жерар Дармон, Эдуард Баэр, Дьедонне, Мусс Диуф

    Описание

    Великая Клеопатра заключила пари с римским императором Юлием Цезарем о том, что ее подданные смогут всего за три месяца построить грандиозный золотой дворец. Этой опасной чести был удостоен архитектор Нумеробис, которого — в случае неудачи — должны растерзать крокодилы.
    Нумеробис вызывает на помощь своего старого друга — друида Панорамикса с зельем, дарующим сверхъестественную силу. А веселые, находчивые Астерикс и Обеликс сопровождают старца в Египет, чтобы помешать проискам Цезаря, не желающего проигрывать Клеопатре.

    Возраст: 12+ (зрителям, достигшим 12 лет)
    Рейтинг MPAA: PG (рекомендуется присутствие родителей)
    Продолжительность: 01: 48: 01
    Качество видео: BDRip
    Перевод: Дублированный, многоголосый профессиональный
    Субтитры: русские
    Видео: AVC/H.264, 1064x452, ~2862 kbps
    Аудио 1: AC3, 6 ch, 384 kbps, Русский (DUB)
    Аудио 2: AC3, 2 ch, 192 kbps, Русский (MVO)
    Общее
    Уникальный идентификатор : 193737573183445160575520541124413671861 (0x91C07FD5B5833221A9E8BB5B1E44C9B5)
    Полное имя : D: FILMSZALIVAsterix..Obelix.Mission.Cleopatre.2002.BDRip.AVC.mkv
    Формат : Matroska
    Версия формата : Version 4
    Размер файла : 2, 60 Гбайт
    Продолжительность : 1 ч. 48 м.
    Общий поток : 3440 Кбит/сек
    Дата кодирования : UTC 2019-12-28 05: 18: 31
    Программа кодирования : mkvmerge v8.2.0 (\'World of Adventure\') 64bit
    Библиотека кодирования : libebml v1.3.1 + libmatroska v1.4.2
    Видео
    Идентификатор : 1
    Формат : AVC
    Формат/Информация : Advanced Video Codec
    Профиль формата : High@L4.1
    Настройки формата : CABAC/8 Ref Frames
    Параметр CABAC формата : Да
    Параметр RefFrames формата : 8 кадров
    Идентификатор кодека : V_MPEG4/ISO/AVC
    Продолжительность : 1 ч. 48 м.
    Битрейт : 2862 Кбит/сек
    Ширина : 1064 пикселя
    Высота : 452 пикселя
    Соотношение сторон : 2, 35: 1
    Режим частоты кадров : Постоянный
    Частота кадров : 24, 000 кадра/сек
    Цветовое пространство : YUV
    Субдискретизация насыщенности : 4: 2: 0
    Битовая глубина : 8 бит
    Тип развёртки : Прогрессивная
    Бит/(Пиксели*Кадры) : 0.248
    Размер потока : 2, 16 Гбайт (83%)
    Библиотека кодирования : x264 core 142 r2431 ac76440
    Настройки программы : cabac=1/ref=8/deblock=1: -2: -1/analyse=0x3: 0x133/me=umh/subme=9/psy=1/psy_rd=1.00: 0.10/mixed_ref=1/me_range=24/chroma_me=1/trellis=2/8x8dct=1/cqm=0/deadzone=21, 11/fast_pskip=0/chroma_qp_offset=-3/threads=3/lookahead_threads=1/sliced_threads=0/nr=0/decimate=1/interlaced=0/bluray_compat=0/constrained_intra=0/bframes=8/b_pyramid=0/b_adapt=2/b_bias=0/direct=3/weightb=1/open_gop=0/weightp=2/keyint=240/keyint_min=24/scenecut=40/intra_refresh=0/rc_lookahead=60/rc=2pass/mbtree=1/bitrate=2862/ratetol=1.0/qcomp=0.60/qpmin=10/qpmax=51/qpstep=4/cplxblur=20.0/qblur=0.5/vbv_maxrate=62500/vbv_bufsize=78125/nal_hrd=none/filler=0/ip_ratio=1.40/aq=1: 1.00
    Default : Да
    Forced : Нет
    Аудио #1
    Идентификатор : 2
    Формат : AC-3
    Формат/Информация : Audio Coding 3
    Коммерческое название : Dolby Digital
    Идентификатор кодека : A_AC3
    Продолжительность : 1 ч. 48 м.
    Вид битрейта : Постоянный
    Битрейт : 384 Кбит/сек
    Каналы : 6 каналов
    ChannelLayout : L R C LFE Ls Rs
    Частота : 48, 0 КГц
    Частота кадров : 31, 250 кадров/сек (1536 SPF)
    Метод сжатия : С потерями
    Размер потока : 297 Мбайт (11%)
    Заголовок : DUB
    Язык : Russian
    ServiceKind/String : Complete Main
    Default : Нет
    Forced : Нет
    Аудио #2
    Идентификатор : 3
    Формат : AC-3
    Формат/Информация : Audio Coding 3
    Коммерческое название : Dolby Digital
    Идентификатор кодека : A_AC3
    Продолжительность : 1 ч. 48 м.
    Вид битрейта : Постоянный
    Битрейт : 192 Кбит/сек
    Каналы : 2 канала
    ChannelLayout : L R
    Частота : 48, 0 КГц
    Частота кадров : 31, 250 кадров/сек (1536 SPF)
    Метод сжатия : С потерями
    Размер потока : 148 Мбайт (6%)
    Заголовок : MVO
    Язык : Russian
    ServiceKind/String : Complete Main
    Default : Да
    Forced : Нет
    Текст #1
    Идентификатор : 4
    Формат : UTF-8
    Идентификатор кодека : S_TEXT/UTF8
    Идентификатор кодека/Информация : UTF-8 Plain Text
    Продолжительность : 1 ч. 41 м.
    Битрейт : 93 бит/сек
    ElementCount : 1336
    Размер потока : 69, 7 Кбайт (0%)
    Заголовок : RUS DUB
    Язык : Russian
    Default : Да
    Forced : Нет
    Текст #2
    Идентификатор : 5
    Формат : UTF-8
    Идентификатор кодека : S_TEXT/UTF8
    Идентификатор кодека/Информация : UTF-8 Plain Text
    Продолжительность : 1 ч. 46 м.
    Битрейт : 106 бит/сек
    ElementCount : 1313
    Размер потока : 82, 7 Кбайт (0%)
    Заголовок : RUS MVO
    Язык : Russian
    Default : Нет
    Forced : Нет

    Скриншоты для ознакомления



    Все одноименные релизы в Клубе
    Время раздачи: c 5 до 19 мск (до появления первых 3-5 скачавших)

    Онлайн видео Астерикс и Обеликс: Миссия Клеопатра



    Астерикс и Обеликс: Миссия Клеопатра/Asterix & Obelix: Mission Cleopatre (2002) BDRip [H.264]
    Рейтинг →
     (голосов: 1, оценка 5/5, голосовать можно 1 раз )

    Другие торренты по теме:

  • Астерикс и Обеликс. Коллекция мультфильмов / Asterix and Obelix (1967 - 2014) BDRip [H.265 / 1080p] [10-bit]
  • Астерикс и Обеликс / Asterix & Obelix - Collectors Edition (1999-2012) BDRip [H.265 / 1080p] [10-bit]
  • Астерикс и Обеликс / Astérix et Obélix (1999-2012) BDRip [H.264 / 720p] [Квадрология]
  • Астерикс и Обеликс: Миссия Клеопатра / Asterix & Obelix: Mission Cleopatre (2002) BDRemux [H.264 / 1080p]
  • Астерикс и Обеликс: Миссия Клеопатра / Asterix & Obelix: Mission Cleopatre (2002) BDRip [H.264 / 1080p]
  • Астерикс и Обеликс: Миссия Клеопатра / Asterix & Obelix: Mission Cleopatre (2002) BDRip


    • Комментарии (0):

      Информация

      Информация

        Посетители, находящиеся в группе Гости, не могут оставлять комментарии в данной новости.

        ↓ Меню




        ↓ Опрос

        Вы добавили сайт в закладки?
        Да
        Нет


        Популярное