.
Авторизация | Регистрация
bitok.xyz
» » Астерикс и Обеликс: Миссия Клеопатра / Asterix & Obelix: Mission Cleopatre (2002) BDRip торрент скачать бесплатно


    Астерикс и Обеликс: Миссия Клеопатра / Asterix & Obelix: Mission Cleopatre (2002) BDRip торрент скачать бесплатно

    Дата: 29-12-2019, 05:00 | .torrent скачали: 0

    Астерикс и Обеликс: Миссия Клеопатра / Asterix & Obelix: Mission Cleopatre (2002) BDRipПроизводство: Франция, Германия/Pathe!, Canal+, Centre National de la Cinématographie (CNC), Chez Wam
    Жанр: фэнтези, комедия, приключения, семейный
    Режиссер: Ален Шаба

    Актеры
    Жерар Депардье, Кристиан Клавье, Жамель Деббуз, Моника Беллуччи, Ален Шаба, Клод Риш, Жерар Дармон, Эдуард Баэр, Дьедонне, Мусс Диуф

    Описание

    Великая Клеопатра заключила пари с римским императором Юлием Цезарем о том, что ее подданные смогут всего за три месяца построить грандиозный золотой дворец. Этой опасной чести был удостоен архитектор Нумеробис, которого — в случае неудачи — должны растерзать крокодилы.
    Нумеробис вызывает на помощь своего старого друга — друида Панорамикса с зельем, дарующим сверхъестественную силу. А веселые, находчивые Астерикс и Обеликс сопровождают старца в Египет, чтобы помешать проискам Цезаря, не желающего проигрывать Клеопатре.

    Возраст: 12+ (зрителям, достигшим 12 лет)
    Рейтинг MPAA: PG (рекомендуется присутствие родителей)
    Продолжительность: 01: 48: 01
    Качество видео: BDRip
    Перевод: Дублированный, многоголосый профессиональный
    Субтитры: отсутствуют
    Видео: XviD, 720x304, ~2110 kbps
    Аудио 1: AC3, 6 ch, 384 kbps, Русский (DUB)
    Аудио 2: AC3, 2 ch, 192 kbps, Русский (MVO)
    Общее
    Полное имя : D: FILMSZALIVAsterix..Obelix.Mission.Cleopatre.2002.BDRip.avi
    Формат : AVI
    Формат/Информация : Audio Video Interleave
    Профиль формата : OpenDML
    Размер файла : 2, 04 Гбайт
    Продолжительность : 1 ч. 48 м.
    Общий поток : 2704 Кбит/сек
    Название фильма : Астерикс и Обеликс: Миссия Клеопатра/Aste\'rix Obe\'lix: Mission Cle\'opatre
    Режиссёр : Overlord
    Программа кодирования : VirtualDubMod 1.5.10.2 (build 2540/release)
    Библиотека кодирования : VirtualDubMod build 2540/release
    Авторское право : HQ-ViDEO.ORG
    Видео
    Идентификатор : 0
    Формат : MPEG-4 Visual
    Профиль формата : Advanced Simple@L5
    Настройки формата : BVOP2/Custom Matrix
    Параметр BVOP формата : 2
    Параметр QPel формата : Нет
    Параметр GMC формата : Без точки перехода
    Параметр матрицы формата : Выборочная
    Идентификатор кодека : XVID
    Идентификатор кодека/Подсказка : XviD
    Продолжительность : 1 ч. 48 м.
    Битрейт : 2110 Кбит/сек
    Ширина : 720 пикселей
    Высота : 304 пикселя
    Соотношение сторон : 2, 35: 1
    Частота кадров : 24, 000 кадра/сек
    Цветовое пространство : YUV
    Субдискретизация насыщенности : 4: 2: 0
    Битовая глубина : 8 бит
    Тип развёртки : Прогрессивная
    Метод сжатия : С потерями
    Бит/(Пиксели*Кадры) : 0.402
    Размер потока : 1, 59 Гбайт (78%)
    Библиотека кодирования : XviD 65
    Аудио #1
    Идентификатор : 1
    Формат : AC-3
    Формат/Информация : Audio Coding 3
    Коммерческое название : Dolby Digital
    Идентификатор кодека : 2000
    Продолжительность : 1 ч. 48 м.
    Вид битрейта : Постоянный
    Битрейт : 384 Кбит/сек
    Каналы : 6 каналов
    ChannelLayout : L R C LFE Ls Rs
    Частота : 48, 0 КГц
    Частота кадров : 31, 250 кадров/сек (1536 SPF)
    Метод сжатия : С потерями
    Размер потока : 297 Мбайт (14%)
    Выравнивание : Разделение по промежуткам
    Продолжительность промежутка : 42 мс. (1, 00 видеокадр)
    Время предзагрузки промежутка : 500 мс.
    Заголовок : DUB
    ServiceKind/String : Complete Main
    Аудио #2
    Идентификатор : 2
    Формат : AC-3
    Формат/Информация : Audio Coding 3
    Коммерческое название : Dolby Digital
    Идентификатор кодека : 2000
    Продолжительность : 1 ч. 47 м.
    Вид битрейта : Постоянный
    Битрейт : 192 Кбит/сек
    Каналы : 2 канала
    ChannelLayout : L R
    Частота : 48, 0 КГц
    Частота кадров : 31, 250 кадров/сек (1536 SPF)
    Метод сжатия : С потерями
    Размер потока : 148 Мбайт (7%)
    Выравнивание : Разделение по промежуткам
    Продолжительность промежутка : 42 мс. (1, 00 видеокадр)
    Время предзагрузки промежутка : 500 мс.
    Заголовок : MVO
    ServiceKind/String : Complete Main

    Скриншоты для ознакомления



    Все одноименные релизы в Клубе
    Время раздачи: c 5 до 19 мск (до появления первых 3-5 скачавших)

    Онлайн видео Астерикс и Обеликс: Миссия Клеопатра



    Астерикс и Обеликс: Миссия Клеопатра/Asterix & Obelix: Mission Cleopatre (2002) BDRip
    Рейтинг →
     (голосов: 1, оценка 4/5, голосовать можно 1 раз )

    Другие торренты по теме:

  • Астерикс и Обеликс. Коллекция мультфильмов / Asterix and Obelix (1967 - 2014) BDRip [H.265 / 1080p] [10-bit]
  • Астерикс и Обеликс / Asterix & Obelix - Collectors Edition (1999-2012) BDRip [H.265 / 1080p] [10-bit]
  • Астерикс и Обеликс / Astérix et Obélix (1999-2012) BDRip [H.264 / 720p] [Квадрология]
  • Астерикс и Обеликс: Миссия Клеопатра / Asterix & Obelix: Mission Cleopatre (2002) BDRemux [H.264 / 1080p]
  • Астерикс и Обеликс: Миссия Клеопатра / Asterix & Obelix: Mission Cleopatre (2002) BDRip [H.264 / 1080p]
  • Астерикс и Обеликс: Миссия Клеопатра / Asterix & Obelix: Mission Cleopatre (2002) BDRip [H.264]


    • Комментарии (0):

      Информация

      Информация

        Посетители, находящиеся в группе Гости, не могут оставлять комментарии в данной новости.

        ↓ Меню




        ↓ Опрос

        Вы добавили сайт в закладки?
        Да
        Нет


        Популярное