.
Авторизация | Регистрация
bitok.xyz
» » Тихие дни в Клиши / Jours tranquilles a Clichy (1990) DVDRip [H.264] торрент скачать бесплатно


    Тихие дни в Клиши / Jours tranquilles a Clichy (1990) DVDRip [H.264] торрент скачать бесплатно

    Дата: 29-12-2019, 05:00 | .torrent скачали: 8

    Тихие дни в Клиши / Jours tranquilles a Clichy (1990) DVDRip [H.264]Производство: Франция, Италия, Германия/AZ Film Production, Cinecittà, Cofimage 2, Direkt-Film, Istituto Luce-Italnoleggio Cinematografico, Italfrance Films, L.C.J. Editions Productions
    Жанр: Драма
    Режиссер: Клод Шаброль
    Продюсер: Антонио Пассалия, Юрай Хмель, Пьетро Инноченци

    Актеры
    Эндрю МакКарти, Найджел Хэверс, Барбара Де Росси, Стефани Тчоу-Котта, Изольда Барт, Ева Гримальди, Анна Гальена, Гвидитта Дель Веккьо, Стефан Одран, Марио Адорф

    Описание

    Американский начинающий писатель Генри Миллер приезжает в Париж, чтобы написать там свою первую книгу. Вскоре он знакомится с проводящим всё свое время за развлечениями Альфредом и начинает вести вместе с ним праздную жизнь. Через некоторое время оба одновременно женятся на шуточной свадьбе на молоденькой нимфетке Колетт и, уже втроем, отправляются в свадебное путешествие.

    Возраст: 18+ (зрителям, достигшим 18 лет. запрещено для детей)
    Релиз от: Охрана (NNMCLUB)
    Продолжительность: 01: 55: 58
    Качество видео: DVDRip
    Перевод: Многоголосый профессиональный
    Субтитры: Отсутствуют
    Видео: AVC/H.264, 720x432, ~1950 Kbps
    Аудио 1: AC3, 2 ch, 192 Kbps, 48.0 kHz – Русский MVO, СВ Студия
    Аудио 2: AC3, 2 ch, 192 Kbps, 48.0 kHz – Русский MVO, НТВ
    Аудио 3: AC3, 2 ch, 192 Kbps, 48.0 kHz – Французский
    Общее
    Уникальный идентификатор : 227209101051311007503920980418483187252 (0xAAEEE192139E341586A272CCABA3EE34)
    Полное имя : B: DownloadsТихие дни в Клиши. 1990. NNMCLUB.mkv
    Формат : Matroska
    Версия формата : Version 4/Version 2
    Размер файла : 2, 05 Гбайт
    Продолжительность : 1 ч. 55 м.
    Общий поток : 2528 Кбит/сек
    Дата кодирования : UTC 2019-12-27 12: 59: 18
    Программа кодирования : mkvmerge v7.9.0 (\'Birds\') 64bit
    Библиотека кодирования : libebml v1.3.1 + libmatroska v1.4.2
    Видео
    Идентификатор : 1
    Формат : AVC
    Формат/Информация : Advanced Video Codec
    Профиль формата : High@L4.1
    Настройки формата : CABAC/12 Ref Frames
    Параметр CABAC формата : Да
    Параметр RefFrames формата : 12 кадров
    Идентификатор кодека : V_MPEG4/ISO/AVC
    Продолжительность : 1 ч. 55 м.
    Битрейт : 1950 Кбит/сек
    Ширина : 720 пикселей
    Высота : 432 пикселя
    Соотношение сторон : 5: 3
    Режим частоты кадров : Постоянный
    Частота кадров : 25, 000 кадров/сек
    Цветовое пространство : YUV
    Субдискретизация насыщенности : 4: 2: 0
    Битовая глубина : 8 бит
    Тип развёртки : Прогрессивная
    Бит/(Пиксели*Кадры) : 0.251
    Размер потока : 1, 58 Гбайт (77%)
    Заголовок : Jours tranquilles à Clichy
    Библиотека кодирования : x264 core 146 r2538 121396c
    Настройки программы : cabac=1/ref=12/deblock=1: -1: -1/analyse=0x3: 0x113/me=umh/subme=10/psy=1/psy_rd=1.00: 0.10/mixed_ref=1/me_range=32/chroma_me=1/trellis=2/8x8dct=1/cqm=0/deadzone=21, 11/fast_pskip=0/chroma_qp_offset=-3/threads=6/lookahead_threads=1/sliced_threads=0/nr=0/decimate=0/interlaced=0/bluray_compat=0/constrained_intra=0/bframes=7/b_pyramid=2/b_adapt=2/b_bias=0/direct=3/weightb=1/open_gop=0/weightp=2/keyint=250/keyint_min=25/scenecut=40/intra_refresh=0/rc_lookahead=60/rc=2pass/mbtree=1/bitrate=1950/ratetol=1.0/qcomp=0.60/qpmin=0/qpmax=69/qpstep=4/cplxblur=20.0/qblur=0.5/vbv_maxrate=14000/vbv_bufsize=14000/nal_hrd=none/filler=0/ip_ratio=1.40/aq=1: 1.00
    Язык : French
    Default : Да
    Forced : Нет
    Аудио #1
    Идентификатор : 2
    Формат : AC-3
    Формат/Информация : Audio Coding 3
    Идентификатор кодека : A_AC3
    Продолжительность : 1 ч. 55 м.
    Вид битрейта : Постоянный
    Битрейт : 192 Кбит/сек
    Каналы : 2 канала
    Расположение каналов : Front: L R
    Частота : 48, 0 КГц
    Частота кадров : 31, 250 кадров/сек (1536 SPF)
    Битовая глубина : 16 бит
    Метод сжатия : С потерями
    Размер потока : 159 Мбайт (8%)
    Заголовок : Многоголосый закадровый, СВ Студия
    Язык : Russian
    ServiceKind/String : Complete Main
    Default : Да
    Forced : Нет
    Аудио #2
    Идентификатор : 3
    Формат : AC-3
    Формат/Информация : Audio Coding 3
    Идентификатор кодека : A_AC3
    Продолжительность : 1 ч. 55 м.
    Вид битрейта : Постоянный
    Битрейт : 192 Кбит/сек
    Каналы : 2 канала
    Расположение каналов : Front: L R
    Частота : 48, 0 КГц
    Частота кадров : 31, 250 кадров/сек (1536 SPF)
    Битовая глубина : 16 бит
    Метод сжатия : С потерями
    Размер потока : 159 Мбайт (8%)
    Заголовок : Многоголосый закадровый, НТВ
    Язык : Russian
    ServiceKind/String : Complete Main
    Default : Нет
    Forced : Нет
    Аудио #3
    Идентификатор : 4
    Формат : AC-3
    Формат/Информация : Audio Coding 3
    Идентификатор кодека : A_AC3
    Продолжительность : 1 ч. 55 м.
    Вид битрейта : Постоянный
    Битрейт : 192 Кбит/сек
    Каналы : 2 канала
    Расположение каналов : Front: L R
    Частота : 48, 0 КГц
    Частота кадров : 31, 250 кадров/сек (1536 SPF)
    Битовая глубина : 16 бит
    Метод сжатия : С потерями
    Размер потока : 159 Мбайт (8%)
    Заголовок : Французский
    Язык : French
    ServiceKind/String : Complete Main
    Default : Нет
    Forced : Нет

    Скриншоты для ознакомления




    Все одноименные релизы в Клубе
    Время раздачи: с 13: 00 до 01: 00 МСК, выходные круглосуточно (до появления первых 3-5 скачавших)

    Онлайн видео Тихие дни в Клиши



    Тихие дни в Клиши/Jours tranquilles a Clichy (1990) DVDRip [H.264]
    Рейтинг →
     (голосов: 1, оценка 5/5, голосовать можно 1 раз )

    Другие торренты по теме:

  • А зори здесь тихие... (2015) DCPRip [2K] [Трейлер] скачать через торрент бесплатно
  • А зори здесь тихие... (2015) WEBRip скачать через торрент бесплатно
  • А зори здесь тихие... (2015) WEBRip скачать через торрент бесплатно
  • А зори здесь тихие... (2015) WEB-DL [H.264 / 1080p-LQ] скачать через торрент бесплатно
  • А зори здесь тихие... (2015) WEB-DLRip [576p] iPad скачать через торрент бесплатно
  • А зори здесь тихие... (2015) WEB-DL [H.264 / 720p-LQ] скачать через торрент бесплатно
  • А зори здесь тихие... (2015) WEB-DLRip [H.264] скачать через торрент бесплатно
  • А зори здесь тихие... (2015) WEB-DLRip скачать через торрент бесплатно


    • Комментарии (0):

      Информация

      Информация

        Посетители, находящиеся в группе Гости, не могут оставлять комментарии в данной новости.

        ↓ Меню




        ↓ Опрос

        Вы добавили сайт в закладки?
        Да
        Нет


        Популярное