.
Авторизация | Регистрация
bitok.xyz
» » Спокойные деревенские женщины / Tranquille donne di campagna (1980) DVDRip [H.264] [VO] торрент скачать бесплатно


    Спокойные деревенские женщины / Tranquille donne di campagna (1980) DVDRip [H.264] [VO] торрент скачать бесплатно

    Дата: 29-12-2019, 05:00 | .torrent скачали: 2

    Спокойные деревенские женщины / Tranquille donne di campagna (1980) DVDRip [H.264] [VO]Производство: Италия/Black Horse International
    Жанр: Драма
    Режиссер: Клаудио Джорджи

    Актеры
    Сильвия Дионисио, Филипп Леруа, Кармен Скарпитта, Кристиан Борромео, Россана Подеста, Джермана Саво, Серена Гранди, Сильвано Транквилли, Марио Марандзана, Дэниэл Гол

    Описание

    Италия, конец тридцатых годов. Режим Муссолини — в самом расцвете, итальянские добровольцы отправляются на гражданскую войну в Испанию. На фоне мирных деревенских пейзажей, за стенами поместья немолодой Флорианы царит своя диктатура: всем заправляет ее брат Гвидо, требующий беспрекословного подчинения своей воле.
    Он считает всех окружающих женщин своей собственностью, и, как петух в курятнике, должен постоянно подтверждать это действием. Его проблема — молодой сын Альберто, во всем не похожий на отца, который мечтает вырваться из-под диктаторской опеки. Когда в поместье приезжает его прекрасная кузина Глория, между молодыми людьми вспыхивает роман. Гвидо узнает, что сестра собирается завещать поместье его недостойному сыну. Все предвещает трагическую развязку.

    Возраст: 16+ (зрителям, достигшим 16 лет)
    Релиз от: Охрана (NNMCLUB)
    Продолжительность: 01: 30: 38
    Качество видео: DVDRip
    Перевод: Одноголосый любительский, Диколон Делон
    Субтитры: Русские
    Видео: AVC/H.264, 720x400, ~2025 Kbps
    Аудио 1: AC3, 2 ch, 192 Kbps, 48.0 kHz – Русский
    Аудио 2: AC3, 2 ch, 192 Kbps, 48.0 kHz – Итальянский
    Общее
    Уникальный идентификатор : 224902733981866111632975199447052218720 (0xA932B0E50CC2A4A6B689CF40A2F47160)
    Полное имя : B: DownloadsСпокойные деревенские женщины. 1980. NNMCLUB.mkv
    Формат : Matroska
    Версия формата : Version 4/Version 2
    Размер файла : 1, 53 Гбайт
    Продолжительность : 1 ч. 30 м.
    Общий поток : 2411 Кбит/сек
    Дата кодирования : UTC 2019-12-28 00: 16: 14
    Программа кодирования : mkvmerge v7.9.0 (\'Birds\') 64bit
    Библиотека кодирования : libebml v1.3.1 + libmatroska v1.4.2
    Видео
    Идентификатор : 1
    Формат : AVC
    Формат/Информация : Advanced Video Codec
    Профиль формата : High@L4.1
    Настройки формата : CABAC/12 Ref Frames
    Параметр CABAC формата : Да
    Параметр RefFrames формата : 12 кадров
    Идентификатор кодека : V_MPEG4/ISO/AVC
    Продолжительность : 1 ч. 30 м.
    Битрейт : 2025 Кбит/сек
    Ширина : 720 пикселей
    Высота : 400 пикселей
    Соотношение сторон : 16: 9
    Режим частоты кадров : Постоянный
    Частота кадров : 25, 000 кадров/сек
    Цветовое пространство : YUV
    Субдискретизация насыщенности : 4: 2: 0
    Битовая глубина : 8 бит
    Тип развёртки : Прогрессивная
    Бит/(Пиксели*Кадры) : 0.281
    Размер потока : 1, 28 Гбайт (84%)
    Заголовок : Tranquille donne di campagna
    Библиотека кодирования : x264 core 146 r2538 121396c
    Настройки программы : cabac=1/ref=12/deblock=1: -1: -1/analyse=0x3: 0x113/me=umh/subme=10/psy=1/psy_rd=1.00: 0.10/mixed_ref=1/me_range=32/chroma_me=1/trellis=2/8x8dct=1/cqm=0/deadzone=21, 11/fast_pskip=0/chroma_qp_offset=-3/threads=6/lookahead_threads=1/sliced_threads=0/nr=0/decimate=0/interlaced=0/bluray_compat=0/constrained_intra=0/bframes=7/b_pyramid=2/b_adapt=2/b_bias=0/direct=3/weightb=1/open_gop=0/weightp=2/keyint=250/keyint_min=25/scenecut=40/intra_refresh=0/rc_lookahead=60/rc=2pass/mbtree=1/bitrate=2025/ratetol=1.0/qcomp=0.60/qpmin=0/qpmax=69/qpstep=4/cplxblur=20.0/qblur=0.5/vbv_maxrate=14000/vbv_bufsize=14000/nal_hrd=none/filler=0/ip_ratio=1.40/aq=1: 1.00
    Язык : Italian
    Default : Да
    Forced : Нет
    Аудио #1
    Идентификатор : 2
    Формат : AC-3
    Формат/Информация : Audio Coding 3
    Идентификатор кодека : A_AC3
    Продолжительность : 1 ч. 30 м.
    Вид битрейта : Постоянный
    Битрейт : 192 Кбит/сек
    Каналы : 2 канала
    Расположение каналов : Front: L R
    Частота : 48, 0 КГц
    Частота кадров : 31, 250 кадров/сек (1536 SPF)
    Битовая глубина : 16 бит
    Метод сжатия : С потерями
    Размер потока : 124 Мбайт (8%)
    Заголовок : Одноголосый закадровый, Диколон Делон
    Язык : Russian
    ServiceKind/String : Complete Main
    Default : Да
    Forced : Нет
    Аудио #2
    Идентификатор : 3
    Формат : AC-3
    Формат/Информация : Audio Coding 3
    Идентификатор кодека : A_AC3
    Продолжительность : 1 ч. 30 м.
    Вид битрейта : Постоянный
    Битрейт : 192 Кбит/сек
    Каналы : 2 канала
    Расположение каналов : Front: L R
    Частота : 48, 0 КГц
    Частота кадров : 31, 250 кадров/сек (1536 SPF)
    Битовая глубина : 16 бит
    Метод сжатия : С потерями
    Размер потока : 124 Мбайт (8%)
    Заголовок : Итальянский
    Язык : Italian
    ServiceKind/String : Complete Main
    Default : Нет
    Forced : Нет
    Текст
    Идентификатор : 4
    Формат : UTF-8
    Идентификатор кодека : S_TEXT/UTF8
    Идентификатор кодека/Информация : UTF-8 Plain Text
    Продолжительность : 1 ч. 29 м.
    Битрейт : 77 бит/сек
    ElementCount : 867
    Размер потока : 50, 8 Кбайт (0%)
    Заголовок : Full
    Язык : Russian
    Default : Нет
    Forced : Нет

    Скриншоты для ознакомления




    Все одноименные релизы в Клубе
    Время раздачи: с 13: 00 до 01: 00 МСК, выходные круглосуточно (до появления первых 3-5 скачавших)

    Онлайн видео Спокойные деревенские женщины



    Спокойные деревенские женщины/Tranquille donne di campagna (1980) DVDRip [H.264] [VO]
    Рейтинг →
     (голосов: 1, оценка 4/5, голосовать можно 1 раз )

    Другие торренты по теме:



      Комментарии (0):

      Информация

      Информация

        Посетители, находящиеся в группе Гости, не могут оставлять комментарии в данной новости.

        ↓ Меню




        ↓ Опрос

        Вы добавили сайт в закладки?
        Да
        Нет


        Популярное