.
Авторизация | Регистрация
bitok.xyz
» » Тайны следствия (2019) HDTVRip (сезон 19, серии 1-24 из 24) торрент скачать бесплатно


    Тайны следствия (2019) HDTVRip (сезон 19, серии 1-24 из 24) торрент скачать бесплатно

    Дата: 29-12-2019, 05:00 | .torrent скачали: 3

    Тайны следствия (2019) HDTVRip (сезон 19, серии 1-24 из 24)Производство: Россия/Студия Прогресс Плюс, Домашний Экран
    Жанр: драма, криминал, детектив
    Режиссер: Егор Баринов

    Актеры
    Анна Ковальчук, Вячеслав Захаров, Сергей Барышев, Александр Новиков, Эмилия Спивак, Юлия Яковлева, Алла Довлатова, Игорь Григорьев, Мирослав Малич, Андрей Шарков и др.

    Описание

    Строгая и обаятельная Мария Сергеевна Швецова продолжает работать в Следственном комитете. После расставания с хирургом Солнцевым она снова свободна и теперь полностью погружена в работу. А вот в жизни Курочкина и Кораблева большие перемены - их повышают в должности.. .

    Возраст: 12+ (зрителям, достигшим 12 лет)
    Продолжительность: ~00: 45: 00 серия
    Качество видео: HDTVRip
    Видео: Xvid, 720x400 (16: 9), ~1322 kbps
    Аудио: AC3, 2 ch, 192 kbps
    General
    Complete name : F: Мои сериалыTajny_sledstvija_S19_1-24iz24_2019_XviD_HDTVRip1.Нежный возраст.(1 сер.).avi
    Format : AVI
    Format/Info : Audio Video Interleave
    File size : 556 MiB
    Duration : 50 min 57 s
    Overall bit rate : 1 524 kb/s
    Writing library : VirtualDub build 40716/release
    Video
    ID : 0
    Format : MPEG-4 Visual
    Format profile : Advanced Simple@L5
    Format settings : BVOP2
    Format settings, BVOP : 2
    Format settings, QPel : No
    Format settings, GMC : No warppoints
    Format settings, Matrix : Default (H.263)
    Codec ID : XVID
    Codec ID/Hint : XviD
    Duration : 50 min 57 s
    Bit rate : 1 322 kb/s
    Width : 720 pixels
    Height : 400 pixels
    Display aspect ratio : 16: 9
    Frame rate : 25.000 FPS
    Color space : YUV
    Chroma subsampling : 4: 2: 0
    Bit depth : 8 bits
    Scan type : Progressive
    Compression mode : Lossy
    Bits/(Pixel*Frame) : 0.184
    Stream size : 482 MiB (87%)
    Writing library : XviD 68
    Audio
    ID : 1
    Format : AC-3
    Format/Info : Audio Coding 3
    Commercial name : Dolby Digital
    Codec ID : 2000
    Duration : 50 min 57 s
    Bit rate mode : Constant
    Bit rate : 192 kb/s
    Channel(s) : 2 channels
    Channel layout : L R
    Sampling rate : 48.0 kHz
    Frame rate : 31.250 FPS (1536 SPF)
    Bit depth : 16 bits
    Compression mode : Lossy
    Stream size : 70.0 MiB (13%)
    Alignment : Aligned on interleaves
    Interleave, duration : 40 ms (1.00 video frame)
    Interleave, preload duration : 512 ms
    Service kind : Complete Main

    Скриншоты для ознакомления



    Все одноименные релизы в Клубе
    Время раздачи: с 07: 00 до 23: 00 (до появления первых 3-5 скачавших)

    Онлайн видео Тайны следствия (2019) HDTVRip (сезон любимого сериала 19, серии 1



    Тайны следствия (2019) HDTVRip (сезон 19, серии 1-24 из 24)
    Рейтинг →
     (голосов: 1, оценка 4/5, голосовать можно 1 раз )

    Другие торренты по теме:

  • Тайны следствия (2014) HDTV [H.264 / 1080i-LQ] (сезон 14, серия 1-8 из 16) (обновляемая) скачать через торрент бесплатно
  • Тайны следствия (2014) SATRip (сезон 14, серии 1-8 из 16) (обновляемая) скачать через торрент бесплатно
  • Тайны следствия (2015) SATRip (сезон 15, серии 1-3 из 12) (обновляемая) скачать через торрент бесплатно
  • Тайны следствия (2015) SATRip [H.264] (сезон 15, серии 1-3 из 12) (обновляемая) скачать через торрент бесплатно
  • Тайны следствия (2015) HDTV [H.264 / 1080i] (сезон 15, серии 1-16 из 16) скачать через торрент бесплатно
  • Тайны следствия (2002) WEBRip (сезон 2, серии 1-12 из 12)
  • Тайны следствия (2001) WEBRip (сезон 1, серии 1-16 из 16)
  • Тайны следствия (2004) WEBRip (сезон 4, серии 1-12 из 12)


    • Комментарии (0):

      Информация

      Информация

        Посетители, находящиеся в группе Гости, не могут оставлять комментарии в данной новости.

        ↓ Меню




        ↓ Опрос

        Вы добавили сайт в закладки?
        Да
        Нет


        Популярное