.
Авторизация | Регистрация
bitok.xyz
» » Воронины (2018) SATRip [H.264] (сезон 22, серии 477-494 из 494) торрент скачать бесплатно

    Воронины (2018) SATRip [H.264] (сезон 22, серии 477-494 из 494) торрент скачать бесплатно

    Дата: 29-12-2019, 05:00 | .torrent скачали: 0

    Воронины (2018) SATRip [H.264] (сезон 22, серии 477-494 из 494)Производство: Россия/ГудСториМедиа, Леан-М, СТС
    Жанр: комедия
    Режиссер: Александр Жигалкин

    Актеры
    Георгий Дронов, Екатерина Волкова, Анна Фроловцева, Борис Клюев, Станислав Дужников, Юлия Куварзина, Мария Ильюхина, Кирилл Михин, Филипп Михин, Людмила Дмитриева и др.

    Описание

    В новых сериях в многодетной семье Кости и Веры Ворониных появляется четвертый ребенок. Теперь, кроме старшей дочки Маши, близнецов Кири и Фили, они воспитывают новорожденную Люсю. Ворониных станет еще больше, а значит - в семье прибавится хлопот. В премьерных сериях приключения любимых персонажей Кости, Веры, Лени, Насти, Галины Ивановны и Николая Петровича не ограничатся пределами их квартир. Создатели придумали еще больше ситуаций, когда мужчины Воронины встают с дивана и отправляются на интересные прогулки. Сюрпризом для зрителей станет появление в проекте звезд в роли самих себя. Так, в одной из серий снялся известный певец, а теперь и телеведущий шоу СТС Большая маленькая звезда Николай Басков.

    Возраст: 16+ (зрителям, достигшим 16 лет)
    Продолжительность: ~00: 25: 00 серия
    Качество видео: SATRip
    Видео: AVC/H.264, 720х400 (16: 9), ~1500 Kbps
    Аудио: AC3, 2 ch, 192 Kbps
    General
    Unique ID : 174312749312459595808326791980703073829 (0x83236A136D52AEA0A4976937A1C0C625)
    Complete name : F: СЕРИАЛЫВОРОНИНЫVoroniny.S22.2018.SATRip.(AVC).Files-x1.Voroniny.(22.sezon.477.seriya).2018.SATRip.AVC.by.Серый1779.Files-x.mkv.mkv
    Format : Matroska
    Format version : Version 2
    File size : 288 MiB
    Duration : 23 min 48 s
    Overall bit rate : 1 693 kb/s
    Encoded date : UTC 2018-09-04 11: 58: 53
    Writing application : mkvmerge v7.8.0 (\'River Man\') 32bit built on Apr 3 2015 12: 11: 22
    Writing library : libebml v1.3.1 + libmatroska v1.4.2
    Video
    ID : 1
    Format : AVC
    Format/Info : Advanced Video Codec
    Format profile : High@L4.1
    Format settings : CABAC/9 Ref Frames
    Format settings, CABAC : Yes
    Format settings, ReFrames : 9 frames
    Codec ID : V_MPEG4/ISO/AVC
    Duration : 23 min 48 s
    Bit rate : 1 500 kb/s
    Width : 720 pixels
    Height : 400 pixels
    Display aspect ratio : 16: 9
    Frame rate mode : Constant
    Frame rate : 25.000 FPS
    Color space : YUV
    Chroma subsampling : 4: 2: 0
    Bit depth : 8 bits
    Scan type : Progressive
    Bits/(Pixel*Frame) : 0.208
    Stream size : 250 MiB (87%)
    Writing library : x264 core 146 r2538 121396c
    Encoding settings : cabac=1/ref=9/deblock=1: -3: -3/analyse=0x3: 0x133/me=umh/subme=9/psy=1/psy_rd=1.00: 0.15/mixed_ref=1/me_range=32/chroma_me=1/trellis=2/8x8dct=1/cqm=0/deadzone=21, 11/fast_pskip=0/chroma_qp_offset=-3/threads=18/lookahead_threads=3/sliced_threads=0/nr=0/decimate=1/interlaced=0/bluray_compat=0/constrained_intra=0/bframes=9/b_pyramid=2/b_adapt=2/b_bias=0/direct=1/weightb=1/open_gop=0/weightp=2/keyint=250/keyint_min=25/scenecut=40/intra_refresh=0/rc=2pass/mbtree=0/bitrate=1500/ratetol=1.0/qcomp=0.60/qpmin=0/qpmax=69/qpstep=4/cplxblur=20.0/qblur=0.5/ip_ratio=1.40/pb_ratio=1.30/aq=2: 1.00
    Default : Yes
    Forced : No
    Color range : Limited
    Color primaries : BT.601 PAL
    Transfer characteristics : BT.470 System B, BT.470 System G
    Matrix coefficients : BT.470 System B, BT.470 System G
    Audio
    ID : 2
    Format : AC-3
    Format/Info : Audio Coding 3
    Codec ID : A_AC3
    Duration : 23 min 48 s
    Bit rate mode : Constant
    Bit rate : 192 kb/s
    Channel(s) : 2 channels
    Channel positions : Front: L R
    Sampling rate : 48.0 kHz
    Frame rate : 31.250 FPS (1536 SPF)
    Bit depth : 16 bits
    Compression mode : Lossy
    Stream size : 32.7 MiB (11%)
    Service kind : Complete Main
    Default : Yes
    Forced : No

    Скриншоты для ознакомления



    Все одноименные релизы в Клубе
    Время раздачи: 24/7 (до появления первых 3-5 скачавших)

    Онлайн видео Воронины (2018) SATRip [H.264] (сезон любимого сериала 22, серии 477


    Прямая ссылка скачивания через uTorrent


    Воронины (2018) SATRip [H.264] (сезон 22, серии 477-494 из 494)
    Рейтинг →
     (голосов: 1, оценка 5/5, голосовать можно 1 раз )

    Другие торренты по теме:

  • Воронины (2017) SATRip (сезон 20, серии 423-424 из 442) (обновляемая)
  • Воронины (2016) SATRip [H.264] (сезон 17, серии 357-376 из 376)
  • Воронины (2016) SATRip (сезон 16, серии 337-356 из 356)
  • Воронины (2017) SATRip [H.264] (сезон 19, серии 404-422 из 422)
  • Воронины (2018) SATRip (сезон 21, серии 456-476 из 476)
  • Воронины (2017) SATRip (сезон 18, серии 377-403 из 403)
  • Воронины (2018) SATRip (сезон 22, серии 477-480 из 500) (обновляемая)
  • Воронины (2015) SATRip (сезон 15, серии 317-324 из 337) (обновляемая) скачать через торрент бесплатно


    • Комментарии (0):

      Информация

      Информация

        Посетители, находящиеся в группе Гости, не могут оставлять комментарии в данной новости.

        ↓ Меню




        ↓ Опрос

        Вы добавили сайт в закладки?
        Да
        Нет


        Популярное