.
Авторизация | Регистрация
bitok.xyz
» » Затерянные в космосе / Lost in Space (2019) WEBRip (сезон 2, серии 1-10 из 10) JimmyJ [AD] торрент скачать бесплатно


    Затерянные в космосе / Lost in Space (2019) WEBRip (сезон 2, серии 1-10 из 10) JimmyJ [AD] торрент скачать бесплатно

    Дата: 29-12-2019, 05:00 | .torrent скачали: 1

    Затерянные в космосе / Lost in Space (2019) WEBRip (сезон 2, серии 1-10 из 10) JimmyJ [AD]Производство: США/Applebox Pictures, Clickety-Clack Productions, Legendary Television, Synthesis Entertainment
    Жанр: фантастика, драма, детектив, приключения, семейный
    Режиссер: Тим Соутэм, Стивен Серджик, Нил Маршалл

    Актеры
    Молли Паркер, Тоби Стивенс, Макс Дженкинс, Тейлор Расселл, Мина Сандвол, Игнасио Серричио, Паркер Поузи, Брайан Стил, Раза Джеффри, Амелия Берстин

    Описание

    Наступило современное будущее, позволившее учёным сделать инновационный прорыв. В этом новом мире путешествия в открытый космос стали привычным делом, и никто им уже не удивлялся. Межгалактические перелеты совершались ежедневно, были открыты необычные планеты и созвездия. Вот и семейство Робинсонов в полном составе однажды отправилось на космические просторы, чтобы довести до конца очень важную правительственную миссию. Их маршрут пролегал через огромное пространство, и преодолеть его можно было спустя миллионы световых лет. Но в пути произошла авария, вызвавшая экстренную посадку на неизвестную площадку. До нужной цели оставалось еще очень далеко, и вернуться на верную дорогу нельзя. Что делать? Пришлось командиру отряда принимать решение о высадке на поверхность, чтобы из подручных материалов они смогли починить летательный аппарат. Но астронавтам необходимо побороть собственный страх, выжить в тяжёлых условиях, и справиться с накатившим отчаянием. Всех героев ждет непростой период времени, заполненный испытаниями, опасностями и странными событиями. Справятся ли путешественники со всеми тяжелыми проблемами?

    Релиз от: JimmyJ
    Продолжительность: ~00: 50: 00 серия
    Качество видео: WEBRip
    Перевод: Двуголосый любительский (JimmyJ)
    Реклама: присутствуют видео, аудио, текстовые вставки рекламы
    Видео: XviD, 720х328, ~1440 kbps
    Аудио #1: MP3, 2 ch, 192 Kbps - русский
    Аудио #2: MP3, 2 ch, 192 Kbps - английский
    General
    Complete name : E: TorrentJimmyJLost.in.Space.2018.S02.NF.WEBRip-JimmyJLost.in.Space.2018.S02E02.Precipice.NF.WEBRip-JimmyJ.avi
    Format : AVI
    Format/Info : Audio Video Interleave
    File size : 541 MiB
    Duration : 41 min 4 s
    Overall bit rate : 1 843 kb/s
    Writing application : Lavf58.29.100
    Video
    ID : 0
    Format : MPEG-4 Visual
    Format profile : Advanced Simple@L5
    Format settings, BVOP : No
    Format settings, QPel : No
    Format settings, GMC : No warppoints
    Format settings, Matrix : Default (H.263)
    Codec ID : XVID
    Codec ID/Hint : XviD
    Duration : 41 min 3 s
    Bit rate : 1 438 kb/s
    Width : 720 pixels
    Height : 328 pixels
    Display aspect ratio : 2.2: 1
    Frame rate : 23.976 (24000/1001) FPS
    Color space : YUV
    Chroma subsampling : 4: 2: 0
    Bit depth : 8 bits
    Scan type : Progressive
    Compression mode : Lossy
    Bits/(Pixel*Frame) : 0.254
    Stream size : 422 MiB (78%)
    Writing library : XviD 67
    Audio #1
    ID : 1
    Format : MPEG Audio
    Format version : Version 1
    Format profile : Layer 3
    Format settings : Joint stereo
    Codec ID : 55
    Codec ID/Hint : MP3
    Duration : 41 min 4 s
    Bit rate mode : Constant
    Bit rate : 192 kb/s
    Channel(s) : 2 channels
    Sampling rate : 48.0 kHz
    Compression mode : Lossy
    Stream size : 56.4 MiB (10%)
    Alignment : Aligned on interleaves
    Interleave, duration : 24 ms (0.58 video frame)
    Title : JimmyJ DDP5.1 @ 768kbps
    Writing library : LAMEªªª
    Audio #2
    ID : 2
    Format : MPEG Audio
    Format version : Version 1
    Format profile : Layer 3
    Format settings : Joint stereo
    Codec ID : 55
    Codec ID/Hint : MP3
    Duration : 41 min 4 s
    Bit rate mode : Constant
    Bit rate : 192 kb/s
    Channel(s) : 2 channels
    Sampling rate : 48.0 kHz
    Compression mode : Lossy
    Stream size : 56.4 MiB (10%)
    Alignment : Aligned on interleaves
    Interleave, duration : 24 ms (0.58 video frame)
    Title : Original DDP5.1 @ 768kbps
    Writing library : LAMEªª

    Скриншоты для ознакомления


    Все одноименные релизы в Клубе
    Время раздачи: 24/7 (до появления первых 3-5 скачавших)

    Онлайн видео Затерянные в космосе



    Затерянные в космосе/Lost in Space (2019) WEBRip (сезон 2, серии 1-10 из 10) JimmyJ [AD]
    Рейтинг →
     (голосов: 1, оценка 5/5, голосовать можно 1 раз )

    Другие торренты по теме:

  • Затерянные в космосе / Lost in Space (1998) BDRip [H.264]
  • Затерянные в космосе / Lost in Space (2018) WEBRip [H.264 / 1080p-LQ] (сезон 1, серии 1-5 из 10) OMSKBIRD (обновляемая) [AD]
  • Затерянные в космосе / Lost in Space (2018) WEBRip [H.264 / 1080p-LQ] (сезон 1, серии 1-10 из 10) IdeaFilm [AD]
  • Затерянные в космосе / Lost in Space (2018) WEBRip [H.264 / 1080p-LQ] (сезон 1, серии 1-10 из 10) TVShows
  • Затерянные в космосе / Lost in Space (2019) WEBRip [H.264 / 1080p-LQ] (сезон 2, серии 1 из 10) (обновляемая) HDRezka Studio
  • Затерянные в космосе / Lost in Space (2019) WEBRip [H.264 / 1080p-LQ] (сезон 2, серии 1 из 10) LakeFilms [AD] (обновляемая)
  • Затерянные в космосе / Lost in Space (2018) WEB-DL [H.265 / 2160p] [HDR, 10-bit] (сезон 1, серии 1-10 из 10) [Пифагор]
  • Затерянные в космосе / Lost in Space (2019) WEBRip (сезон 2, серии 1 из 10) LostFilm (обновляемая)


    • Комментарии (0):

      Информация

      Информация

        Посетители, находящиеся в группе Гости, не могут оставлять комментарии в данной новости.

        ↓ Меню




        ↓ Опрос

        Вы добавили сайт в закладки?
        Да
        Нет


        Популярное