.
Авторизация | Регистрация
bitok.xyz
» » Затерянные в космосе / Lost in Space (2019) WEBRip [H.264 / 1080p-LQ] (сезон 2, серии 1-10 из 10) JimmyJ [AD] торрент скачать бесплатно


    Затерянные в космосе / Lost in Space (2019) WEBRip [H.264 / 1080p-LQ] (сезон 2, серии 1-10 из 10) JimmyJ [AD] торрент скачать бесплатно

    Дата: 29-12-2019, 05:00 | .torrent скачали: 5

    Затерянные в космосе / Lost in Space (2019) WEBRip [H.264 / 1080p-LQ] (сезон 2, серии 1-10 из 10) JimmyJ [AD]Производство: США/Applebox Pictures, Clickety-Clack Productions, Legendary Television, Synthesis Entertainment
    Жанр: фантастика, драма, детектив, приключения, семейный
    Режиссер: Тим Соутэм, Стивен Серджик, Нил Маршалл

    Актеры
    Молли Паркер, Тоби Стивенс, Макс Дженкинс, Тейлор Расселл, Мина Сандвол, Игнасио Серричио, Паркер Поузи, Брайан Стил, Раза Джеффри, Амелия Берстин

    Описание

    Наступило современное будущее, позволившее учёным сделать инновационный прорыв. В этом новом мире путешествия в открытый космос стали привычным делом, и никто им уже не удивлялся. Межгалактические перелеты совершались ежедневно, были открыты необычные планеты и созвездия. Вот и семейство Робинсонов в полном составе однажды отправилось на космические просторы, чтобы довести до конца очень важную правительственную миссию. Их маршрут пролегал через огромное пространство, и преодолеть его можно было спустя миллионы световых лет. Но в пути произошла авария, вызвавшая экстренную посадку на неизвестную площадку. До нужной цели оставалось еще очень далеко, и вернуться на верную дорогу нельзя. Что делать? Пришлось командиру отряда принимать решение о высадке на поверхность, чтобы из подручных материалов они смогли починить летательный аппарат. Но астронавтам необходимо побороть собственный страх, выжить в тяжёлых условиях, и справиться с накатившим отчаянием. Всех героев ждет непростой период времени, заполненный испытаниями, опасностями и странными событиями. Справятся ли путешественники со всеми тяжелыми проблемами?

    Релиз от: JimmyJ
    Продолжительность: ~00: 50: 00 серия
    Качество видео: WEBRip 1080p
    Перевод: Двуголосый любительский (JimmyJ)
    Реклама: присутствуют видео, аудио, текстовые вставки рекламы
    Видео: AVC/H.264, 1920х872, ~4029 kbps
    Аудио #1: EAC3, 6 ch, 768 Kbps - русский
    Аудио #2: EAC3, 6 ch, 768 Kbps - английский
    General
    Unique ID : 256111099054134272947952713697637469859 (0xC0AD3416FDEBEF44F4AD110827408EA3)
    Complete name : E: TorrentJimmyJLost.in.Space.2018.S02.1080p.NF.WEBRip.DDP5.1.x264-JimmyJLost.in.Space.2018.S02E01.Shipwrecked.1080p.NF.WEBRip.DDP5.1.x264-JimmyJ.mkv
    Format : Matroska
    Format version : Version 4
    File size : 1.99 GiB
    Duration : 51 min 10 s
    Overall bit rate : 5 567 kb/s
    Encoded date : UTC 2019-12-25 18: 37: 23
    Writing application : mkvmerge v41.0.0 (\'Smarra\') 64-bit
    Writing library : libebml v1.3.9 + libmatroska v1.5.2
    Video
    ID : 1
    Format : AVC
    Format/Info : Advanced Video Codec
    Format profile : Main@L4
    Format settings : CABAC/4 Ref Frames
    Format settings, CABAC : Yes
    Format settings, Reference : 4 frames
    Codec ID : V_MPEG4/ISO/AVC
    Duration : 51 min 10 s
    Bit rate : 4 029 kb/s
    Width : 1 920 pixels
    Height : 872 pixels
    Display aspect ratio : 2.2: 1
    Frame rate mode : Constant
    Frame rate : 23.976 (24000/1001) FPS
    Color space : YUV
    Chroma subsampling : 4: 2: 0
    Bit depth : 8 bits
    Scan type : Progressive
    Bits/(Pixel*Frame) : 0.100
    Stream size : 1.44 GiB (72%)
    Language : English
    Default : Yes
    Forced : No
    Color range : Limited
    Color primaries : BT.709
    Transfer characteristics : BT.709
    Matrix coefficients : BT.709
    Audio #1
    ID : 2
    Format : E-AC-3
    Format/Info : Enhanced AC-3
    Commercial name : Dolby Digital Plus
    Codec ID : A_EAC3
    Duration : 51 min 10 s
    Bit rate mode : Constant
    Bit rate : 768 kb/s
    Channel(s) : 6 channels
    Channel layout : L R C LFE Ls Rs
    Sampling rate : 48.0 kHz
    Frame rate : 31.250 FPS (1536 SPF)
    Compression mode : Lossy
    Stream size : 281 MiB (14%)
    Title : JimmyJ DDP5.1 @ 768kbps
    Language : Russian
    Service kind : Complete Main
    Default : No
    Forced : No
    Audio #2
    ID : 3
    Format : E-AC-3
    Format/Info : Enhanced AC-3
    Commercial name : Dolby Digital Plus
    Codec ID : A_EAC3
    Duration : 51 min 10 s
    Bit rate mode : Constant
    Bit rate : 768 kb/s
    Channel(s) : 6 channels
    Channel layout : L R C LFE Ls Rs
    Sampling rate : 48.0 kHz
    Frame rate : 31.250 FPS (1536 SPF)
    Compression mode : Lossy
    Stream size : 281 MiB (14%)
    Title : Original DDP5.1 @ 768kbps
    Language : English
    Service kind : Complete Main
    Default : No
    Forced : No

    Скриншоты для ознакомления


    Все одноименные релизы в Клубе
    Время раздачи: 24/7 (до появления первых 3-5 скачавших)

    Онлайн видео Затерянные в космосе



    Затерянные в космосе/Lost in Space (2019) WEBRip [H.264/1080p-LQ] (сезон 2, серии 1-10 из 10) JimmyJ [AD]
    Рейтинг →
     (голосов: 1, оценка 5/5, голосовать можно 1 раз )

    Другие торренты по теме:

  • Затерянные в космосе / Lost in Space (1998) BDRip [H.264]
  • Затерянные в космосе / Lost in Space (2018) WEBRip [H.264 / 1080p-LQ] (сезон 1, серии 1-5 из 10) OMSKBIRD (обновляемая) [AD]
  • Затерянные в космосе / Lost in Space (2018) WEBRip [H.264 / 1080p-LQ] (сезон 1, серии 1-10 из 10) IdeaFilm [AD]
  • Затерянные в космосе / Lost in Space (2018) WEBRip [H.264 / 1080p-LQ] (сезон 1, серии 1-10 из 10) TVShows
  • Затерянные в космосе / Lost in Space (2019) WEBRip [H.264 / 1080p-LQ] (сезон 2, серии 1 из 10) (обновляемая) HDRezka Studio
  • Затерянные в космосе / Lost in Space (2019) WEBRip [H.264 / 1080p-LQ] (сезон 2, серии 1 из 10) LakeFilms [AD] (обновляемая)
  • Затерянные в космосе / Lost in Space (2018) WEB-DL [H.265 / 2160p] [HDR, 10-bit] (сезон 1, серии 1-10 из 10) [Пифагор]
  • Затерянные в космосе / Lost in Space (2019) WEBRip (сезон 2, серии 1 из 10) LostFilm (обновляемая)


    • Комментарии (0):

      Информация

      Информация

        Посетители, находящиеся в группе Гости, не могут оставлять комментарии в данной новости.

        ↓ Меню




        ↓ Опрос

        Вы добавили сайт в закладки?
        Да
        Нет


        Популярное