.
Авторизация | Регистрация
bitok.xyz
» » Любовь по расчету / For Love or Money (2019) WEB-DLRip [H.264 / 1080p-LQ] [Line, AD] торрент скачать бесплатно


    Любовь по расчету / For Love or Money (2019) WEB-DLRip [H.264 / 1080p-LQ] [Line, AD] торрент скачать бесплатно

    Дата: 30-12-2019, 05:00 | .torrent скачали: 0

    Любовь по расчету / For Love or Money (2019) WEB-DLRip [H.264 / 1080p-LQ] [Line, AD]Производство: Великобритания/Goldfinch, Solar Productions
    Жанр: Комедия
    Режиссер: Марк Мерфи

    Актеры
    Роберт Казински, Саманта Баркс, Рэйчел Херд-Вуд, Эдвард Спелирс, Тони Вэй, Айван Кэй, Анна Чэнселлор, Дэвид Харгривз, Чарли МакДугалл, Тала Гувейя

    Описание

    Марк собирается заработать 20 миллионов фунтов стерлингов от коммерческой сделки, которую он держит в секрете от всех, даже от своего лучшего друга Тима. Более того, случайная встреча на похоронах дала ему еще один шанс с любовью всей его жизни Конни. Сказочный роман приобретает неожиданный поворот, когда Марк узнает, что его будущая невеста, имеет корыстные намерения.

    Дата мировой премьеры: 15 марта 2019
    Продолжительность: 01: 31: 27
    Качество видео: WEB-DLRip
    Перевод: Дублированный чистый звук
    Субтитры: Отсутствуют
    Реклама: Присутствует баннер.
    Видео: AVC/H.264, 1920x804, ~6332 Kbps
    Аудио: AC3, 2 ch, 384 Kbps
    Общее
    Полное имя : D: NNMЛюбовь по расчетуFor.Love.or.Money.2019.WEB-DLRip.1080p-LQ.mkv
    Формат : Matroska
    Версия формата : Version 2
    Размер файла : 4, 38 Гбайт
    Продолжительность : 1 ч. 31 м.
    Режим общего битрейта : Переменный
    Общий поток : 6853 Кбит/сек
    Программа кодирования : libmatroska 1.4.1
    Библиотека кодирования : SolveigMM Matroska Muxer Version 1.0.1502.31
    Видео
    Идентификатор : 1
    Формат : AVC
    Формат/Информация : Advanced Video Codec
    Профиль формата : High@L4.1
    Настройки формата : CABAC/4 Ref Frames
    Параметр CABAC формата : Да
    Параметр RefFrames формата : 4 кадра
    Идентификатор кодека : V_MPEG4/ISO/AVC
    Продолжительность : 1 ч. 31 м.
    Вид битрейта : Переменный
    Битрейт : 6332 Кбит/сек
    Номинальный битрейт : 7200 Кбит/сек
    Максимальный битрейт : 7200 Кбит/сек
    Ширина : 1920 пикселей
    Высота : 804 пикселя
    Соотношение сторон : 2, 40: 1
    Режим частоты кадров : Постоянный
    Частота кадров : 23, 976 (24000/1001) кадра/сек
    Стандарт вещания : Component
    Цветовое пространство : YUV
    Субдискретизация насыщенности : 4: 2: 0
    Битовая глубина : 8 бит
    Тип развёртки : Прогрессивная
    Бит/(Пиксели*Кадры) : 0.171
    Размер потока : 4, 05 Гбайт (92%)
    Default : Нет
    Forced : Нет
    Цветовой диапазон : Limited
    Основные цвета : BT.709
    Характеристики трансфера : BT.709
    Коэффициенты матрицы : BT.709
    Аудио
    Идентификатор : 2
    Формат : AC-3
    Формат/Информация : Audio Coding 3
    Коммерческое название : Dolby Digital
    Идентификатор кодека : A_AC3
    Продолжительность : 1 ч. 31 м.
    Вид битрейта : Постоянный
    Битрейт : 384 Кбит/сек
    Каналы : 2 канала
    ChannelLayout : M M
    Частота : 48, 0 КГц
    Частота кадров : 31, 250 кадров/сек (1536 SPF)
    Метод сжатия : С потерями
    Размер потока : 251 Мбайт (6%)
    Язык : Russian
    ServiceKind/String : Complete Main
    Default : Нет
    Forced : Нет

    Скриншоты для ознакомления



    Все одноименные релизы в Клубе Время раздачи: 24/7 (до появления первых 3-5 скачавших)

    Онлайн видео Любовь по расчету



    Любовь по расчету/For Love or Money (2019) WEB-DLRip [H.264/1080p-LQ] [Line, AD]
    Рейтинг →
     (голосов: 1, оценка 3/5, голосовать можно 1 раз )

    Другие торренты по теме:

  • Любовь по расчету / For Love or Money (2019) WEB-DL [H.264 / 1080p]
  • Любовь по расчету / For Love or Money (2019) WEB-DLRip
  • Любовь по расчету / For Love or Money (2019) WEB-DLRip [Line, AD]


    • Комментарии (0):

      Информация

      Информация

        Посетители, находящиеся в группе Гости, не могут оставлять комментарии в данной новости.

        ↓ Меню




        ↓ Опрос

        Вы добавили сайт в закладки?
        Да
        Нет


        Популярное