.
Авторизация | Регистрация
bitok.xyz
» » Маленькие чудовища / Little Monsters (2019) HDRip торрент скачать бесплатно


    Маленькие чудовища / Little Monsters (2019) HDRip торрент скачать бесплатно

    Дата: 30-12-2019, 05:00 | .torrent скачали: 0

    Маленькие чудовища / Little Monsters (2019) HDRipПроизводство: Великобритания, Австралия, США | Made Up Stories, Protagonist Pictures
    Жанр: ужасы, комедия
    Режиссер: Абе Форсайт

    Актеры
    Лупита Нионго, Джош Гад, Александр Инглэнд, Надя Таунсенд, Стивен Пикок, Кэт Стюарт, М.Дж. Коколис, Саския Бурмайстер, Талайна Моана Никора, Дизель Ла Торрака

    Описание

    Воспитательница везёт группу дошколят за город на экскурсию, а в это время происходит вспышка зомби-вируса. Чтобы спастись и не травмировать хрупкую детскую психику, женщина убеждает малышей, что все эти зомби, кровь, кишки — ненастоящие, а всё происходящее — просто игра. Странная, но весёлая. И вот тот дядя корчится не от боли, а от радости. И не корчится, а смеётся.

    Возраст: 18+ (зрителям, достигшим 18 лет. запрещено для детей)
    Рейтинг MPAA: R (лицам до 17 лет обязательно присутствие взрослого)
    Дата мировой премьеры: 27 января 2019
    Дата российской премьеры: 10 октября 2019
    Продолжительность: 01: 33: 47
    Качество видео: HDRip
    Перевод: Дублированный (iTunes)
    Субтитры: Отсутствуют
    Видео: XviD, 720x304, ~1836 Kbps
    Аудио: AC-3, 6 ch, 384 Kbps
    Общее
    Полное имя : D: NNMМаленькие чудовищаLittle.Monsters.2019.HDRip.avi
    Формат : AVI
    Формат/Информация : Audio Video Interleave
    Размер файла : 1, 46 Гбайт
    Продолжительность : 1 ч. 33 м.
    Общий поток : 2229 Кбит/сек
    Программа кодирования : VirtualDubMod 1.5.10.3 |www.virtualdub-fr.org|| (build 2550/release)
    Библиотека кодирования : VirtualDubMod build 2550/release
    Видео
    Идентификатор : 0
    Формат : MPEG-4 Visual
    Профиль формата : Advanced Simple@L5
    Настройки формата : BVOP2
    Параметр BVOP формата : 2
    Параметр QPel формата : Нет
    Параметр GMC формата : Без точки перехода
    Параметр матрицы формата : Default (MPEG)
    Идентификатор кодека : XVID
    Идентификатор кодека/Подсказка : XviD
    Продолжительность : 1 ч. 33 м.
    Битрейт : 1836 Кбит/сек
    Ширина : 720 пикселей
    Высота : 304 пикселя
    Соотношение сторон : 2, 35: 1
    Частота кадров : 23, 976 (24000/1001) кадра/сек
    Цветовое пространство : YUV
    Субдискретизация насыщенности : 4: 2: 0
    Битовая глубина : 8 бит
    Тип развёртки : Прогрессивная
    Метод сжатия : С потерями
    Бит/(Пиксели*Кадры) : 0.350
    Размер потока : 1, 20 Гбайт (82%)
    Библиотека кодирования : XviD 67
    Аудио
    Идентификатор : 1
    Формат : AC-3
    Формат/Информация : Audio Coding 3
    Коммерческое название : Dolby Digital
    Идентификатор кодека : 2000
    Продолжительность : 1 ч. 33 м.
    Вид битрейта : Постоянный
    Битрейт : 384 Кбит/сек
    Каналы : 6 каналов
    ChannelLayout : L R C LFE Ls Rs
    Частота : 48, 0 КГц
    Частота кадров : 31, 250 кадров/сек (1536 SPF)
    Метод сжатия : С потерями
    Размер потока : 258 Мбайт (17%)
    Выравнивание : Разделение по промежуткам
    Продолжительность промежутка : 42 мс. (1, 00 видеокадр)
    Время предзагрузки промежутка : 500 мс.
    ServiceKind/String : Complete Main

    Скриншоты для ознакомления



    Все одноименные релизы в Клубе
    Время раздачи: 24/7 (до появления первых 3-5 скачавших)

    Онлайн видео Маленькие чудовища



    Маленькие чудовища/Little Monsters (2019) HDRip
    Рейтинг →
     (голосов: 1, оценка 3/5, голосовать можно 1 раз )

    Другие торренты по теме:

  • Маленькие чудовища / Little Monsters (2019) WEBRip [H.265] [10-bit]
  • Маленькие чудовища / Little Monsters (2019 ) WEBRip [H.264 / 720p-LQ]
  • Маленькие чудовища / Little Monsters (2019) WEBRip [H.264 / 1080p-LQ]
  • Маленькие чудовища / Little Monsters (2019) BDRip [H.264 / 1080p]
  • Маленькие чудовища / Little Monsters (2019) BDRemux [H.264 / 1080p]


    • Комментарии (0):

      Информация

      Информация

        Посетители, находящиеся в группе Гости, не могут оставлять комментарии в данной новости.

        ↓ Меню




        ↓ Опрос

        Вы добавили сайт в закладки?
        Да
        Нет


        Популярное