.
Авторизация | Регистрация
bitok.xyz
» » Маленькие чудовища / Little Monsters (2019) BDRip [H.264 / 1080p] торрент скачать бесплатно


    Маленькие чудовища / Little Monsters (2019) BDRip [H.264 / 1080p] торрент скачать бесплатно

    Дата: 30-12-2019, 05:00 | .torrent скачали: 0

    Маленькие чудовища / Little Monsters (2019) BDRip [H.264 / 1080p]Производство: Великобритания, Австралия, США | Made Up Stories, Protagonist Pictures
    Жанр: ужасы, комедия
    Режиссер: Абе Форсайт

    Актеры
    Лупита Нионго, Джош Гад, Александр Инглэнд, Надя Таунсенд, Стивен Пикок, Кэт Стюарт, М.Дж. Коколис, Саския Бурмайстер, Талайна Моана Никора, Дизель Ла Торрака

    Описание

    Воспитательница везёт группу дошколят за город на экскурсию, а в это время происходит вспышка зомби-вируса. Чтобы спастись и не травмировать хрупкую детскую психику, женщина убеждает малышей, что все эти зомби, кровь, кишки — ненастоящие, а всё происходящее — просто игра. Странная, но весёлая. И вот тот дядя корчится не от боли, а от радости. И не корчится, а смеётся.

    Возраст: 18+ (зрителям, достигшим 18 лет. запрещено для детей)
    Рейтинг MPAA: R (лицам до 17 лет обязательно присутствие взрослого)
    Дата мировой премьеры: 27 января 2019
    Дата российской премьеры: 10 октября 2019
    Продолжительность: 01: 34: 09
    Качество видео: BDRip (1080p)
    Перевод: Дублированный (iTunes)
    Субтитры: Русские (full), немецкие (forced, full)
    Видео: AVC/H.264, 1920x804 ~11, 6 Mbps
    Аудио 1: AC3, 6 ch, 384 kbps - Русский
    Аудио 2: AC3, 6 ch, 640 kbps - Английский
    Аудио 3: AC3, 6 ch, 640 kbps - Немецкий
    Общее
    Уникальный идентификатор : 56523737769870127429944148290061078909 (0x2A86136F190BE0E1920808ED5656117D)
    Полное имя : D: NNMМаленькие чудовищаLittle.Monsters.2019.BDRip.1080p.mkv
    Формат : Matroska
    Версия формата : Version 4
    Размер файла : 8, 72 Гбайт
    Продолжительность : 1 ч. 34 м.
    Общий поток : 13, 3 Мбит/сек
    Дата кодирования : UTC 2019-12-28 11: 42: 21
    Программа кодирования : mkvmerge v41.0.0 (\'Smarra\') 64-bit
    Библиотека кодирования : libebml v1.3.9 + libmatroska v1.5.2
    Видео
    Идентификатор : 1
    Формат : AVC
    Формат/Информация : Advanced Video Codec
    Профиль формата : High@L4.1
    Настройки формата : CABAC/4 Ref Frames
    Параметр CABAC формата : Да
    Параметр RefFrames формата : 4 кадра
    Идентификатор кодека : V_MPEG4/ISO/AVC
    Продолжительность : 1 ч. 33 м.
    Битрейт : 11, 6 Мбит/сек
    Ширина : 1920 пикселей
    Высота : 804 пикселя
    Соотношение сторон : 2, 40: 1
    Режим частоты кадров : Постоянный
    Частота кадров : 23, 976 (24000/1001) кадра/сек
    Цветовое пространство : YUV
    Субдискретизация насыщенности : 4: 2: 0
    Битовая глубина : 8 бит
    Тип развёртки : Прогрессивная
    Бит/(Пиксели*Кадры) : 0.313
    Размер потока : 7, 59 Гбайт (87%)
    Библиотека кодирования : x264 core 158 r2984+49 6932f4a t_mod_New 0-bit@all X86_64
    Настройки программы : cabac=1/ref=4/deblock=1: -3: -3/analyse=0x3: 0x133/me=umh/subme=10/psy=1/fade_compensate=0.00/psy_rd=1.00: 0.00/mixed_ref=1/me_range=32/chroma_me=1/trellis=2/8x8dct=1/cqm=0/deadzone=21, 11/fast_pskip=0/chroma_qp_offset=-2/threads=25/lookahead_threads=4/sliced_threads=0/nr=0/decimate=0/interlaced=0/bluray_compat=0/constrained_intra=0/fgo=0/bframes=8/b_pyramid=2/b_adapt=2/b_bias=0/direct=3/weightb=1/open_gop=0/weightp=2/keyint=250/keyint_min=23/scenecut=40/intra_refresh=0/rc=crf/mbtree=0/crf=17.0000/qcomp=0.65/qpmin=0: 0: 0/qpmax=69: 69: 69/qpstep=4/ip_ratio=1.30/pb_ratio=1.20/aq=3: 0.85/aq-sensitivity=10.00/aq-factor=1.00: 1.00: 1.00/aq2=0/aq3=0
    Язык : German
    Default : Да
    Forced : Нет
    Аудио #1
    Идентификатор : 2
    Формат : AC-3
    Формат/Информация : Audio Coding 3
    Коммерческое название : Dolby Digital
    Идентификатор кодека : A_AC3
    Продолжительность : 1 ч. 33 м.
    Вид битрейта : Постоянный
    Битрейт : 384 Кбит/сек
    Каналы : 6 каналов
    ChannelLayout : L R C LFE Ls Rs
    Частота : 48, 0 КГц
    Частота кадров : 31, 250 кадров/сек (1536 SPF)
    Метод сжатия : С потерями
    Размер потока : 258 Мбайт (3%)
    Язык : Russian
    ServiceKind/String : Complete Main
    Default : Да
    Forced : Нет
    Аудио #2
    Идентификатор : 3
    Формат : AC-3
    Формат/Информация : Audio Coding 3
    Коммерческое название : Dolby Digital
    Идентификатор кодека : A_AC3
    Продолжительность : 1 ч. 34 м.
    Вид битрейта : Постоянный
    Битрейт : 640 Кбит/сек
    Каналы : 6 каналов
    ChannelLayout : L R C LFE Ls Rs
    Частота : 48, 0 КГц
    Частота кадров : 31, 250 кадров/сек (1536 SPF)
    Метод сжатия : С потерями
    Размер потока : 431 Мбайт (5%)
    Язык : English
    ServiceKind/String : Complete Main
    Default : Нет
    Forced : Нет
    Аудио #3
    Идентификатор : 4
    Формат : AC-3
    Формат/Информация : Audio Coding 3
    Коммерческое название : Dolby Digital
    Идентификатор кодека : A_AC3
    Продолжительность : 1 ч. 34 м.
    Вид битрейта : Постоянный
    Битрейт : 640 Кбит/сек
    Каналы : 6 каналов
    ChannelLayout : L R C LFE Ls Rs
    Частота : 48, 0 КГц
    Частота кадров : 31, 250 кадров/сек (1536 SPF)
    Метод сжатия : С потерями
    Размер потока : 431 Мбайт (5%)
    Язык : German
    ServiceKind/String : Complete Main
    Default : Нет
    Forced : Нет
    Текст #1
    Идентификатор : 5
    Формат : UTF-8
    Идентификатор кодека : S_TEXT/UTF8
    Идентификатор кодека/Информация : UTF-8 Plain Text
    Продолжительность : 1 ч. 33 м.
    Битрейт : 115 бит/сек
    ElementCount : 1513
    Размер потока : 78, 9 Кбайт (0%)
    Заголовок : Full Focs
    Язык : Russian
    Default : Нет
    Forced : Нет
    Текст #2
    Идентификатор : 6
    Формат : UTF-8
    Идентификатор кодека : S_TEXT/UTF8
    Идентификатор кодека/Информация : UTF-8 Plain Text
    Продолжительность : 1 ч. 19 м.
    Битрейт : 7 бит/сек
    ElementCount : 112
    Размер потока : 4, 59 Кбайт (0%)
    Заголовок : Forced
    Язык : German
    Default : Нет
    Forced : Нет
    Текст #3
    Идентификатор : 7
    Формат : PGS
    Идентификатор кодека : S_HDMV/PGS
    Идентификатор кодека/Информация : Picture based subtitle format used on BDs/HD-DVDs
    Продолжительность : 1 ч. 33 м.
    Битрейт : 42, 0 Кбит/сек
    ElementCount : 2282
    Размер потока : 28, 1 Мбайт (0%)
    Заголовок : Full
    Язык : German
    Default : Нет
    Forced : Нет
    Меню
    00: 00: 00.000 : en: 00: 00: 00.000
    00: 07: 27.572 : en: 00: 07: 27.572
    00: 15: 08.950 : en: 00: 15: 08.950
    00: 23: 21.150 : en: 00: 23: 21.150
    00: 32: 29.698 : en: 00: 32: 29.698
    00: 38: 50.662 : en: 00: 38: 50.662
    00: 45: 57.588 : en: 00: 45: 57.588
    00: 53: 14.316 : en: 00: 53: 14.316
    00: 59: 28.315 : en: 00: 59: 28.315
    01: 08: 30.773 : en: 01: 08: 30.773
    01: 18: 10.811 : en: 01: 18: 10.811
    01: 25: 47.352 : en: 01: 25: 47.352

    Скриншоты для ознакомления



    Все одноименные релизы в Клубе
    Время раздачи: 24/7 (до появления первых 3-5 скачавших)

    Онлайн видео Маленькие чудовища



    Маленькие чудовища/Little Monsters (2019) BDRip [H.264/1080p]
    Рейтинг →
     (голосов: 1, оценка 5/5, голосовать можно 1 раз )

    Другие торренты по теме:

  • Маленькие чудовища / Little Monsters (2019) WEBRip [H.265] [10-bit]
  • Маленькие чудовища / Little Monsters (2019 ) WEBRip [H.264 / 720p-LQ]
  • Маленькие чудовища / Little Monsters (2019) WEBRip [H.264 / 1080p-LQ]
  • Маленькие чудовища / Little Monsters (2019) HDRip
  • Маленькие чудовища / Little Monsters (2019) BDRemux [H.264 / 1080p]


    • Комментарии (0):

      Информация

      Информация

        Посетители, находящиеся в группе Гости, не могут оставлять комментарии в данной новости.

        ↓ Меню




        ↓ Опрос

        Вы добавили сайт в закладки?
        Да
        Нет


        Популярное