.
Авторизация | Регистрация
bitok.xyz
» » Ford против Ferrari / Ford v Ferrari (2019) WEBRip [H.264 / 1080p-LQ] [Line, AD] торрент скачать бесплатно


    Ford против Ferrari / Ford v Ferrari (2019) WEBRip [H.264 / 1080p-LQ] [Line, AD] торрент скачать бесплатно

    Дата: 30-12-2019, 05:00 | .torrent скачали: 1

    Ford против Ferrari / Ford v Ferrari (2019) WEBRip [H.264 / 1080p-LQ] [Line, AD]Производство: США, Франция, 20th Century Fox Film Corporation, Chernin Entertainment
    Жанр: Биография, Спорт, Драма, Боевик
    Режиссер: Джеймс Мэнголд
    Продюсер: Дженно Топпинг, Dani Bernfeld, Питер Чернин

    Актеры
    Кристиан Бэйл, Мэтт Дэймон, Катрина Балф, Трэйси Леттс, Джон Бернтал, Ноа Джуп, Джош Лукас, Ремо Джироне, Рэй Маккиннон, Джей Джей Филд

    Описание

    Фильм рассказывает о взаимоотношениях американского автомобильного конструктора Кэрролла Шелби и отважного британского гонщика Кена Майлза, которые вместе бросили вызов корпорациям и собственным демонам, чтобы создать абсолютно новый спорткар, который смог конкурировать с Ferrari на чемпионате мира, прошедшем во Франции в середине 1960-х.

    Возраст: 16+ (зрителям, достигшим 16 лет)
    Рейтинг MPAA: PG-13 (детям до 13 лет просмотр нежелателен)
    Дата мировой премьеры: 30 августа 2019
    Дата российской премьеры: 14 ноября 2019, Двадцатый Век Фокс СНГ

    Продолжительность: 02: 31: 57
    Качество видео: WEBRip
    Перевод: Дублированный (Чистый звук)
    Субтитры: Отсутствуют
    Реклама: Присутсвует банер
    Видео: AVC/H.264, 1920x800 (2.40: 1), 6524 kbps, 23.976 fps
    Аудио: АС3, 2 ch, 48 kHz, 384 Kbps | РусскийОбщее
    Уникальный идентификатор : 178132671523963221008651688490809855109 (0x86031AC820132ABE9BD1FE418D2E8C85)
    Полное имя : D: Ford.против.Ferrari.2019.WEBRip.1080p.NNMClub.mkv
    Формат : Matroska
    Версия формата : Version 4
    Размер файла : 7, 33 Гбайт
    Продолжительность : 2 ч. 31 м.
    Режим общего битрейта : Переменный
    Общий поток : 6910 Кбит/сек
    Дата кодирования : UTC 2019-12-29 14: 03: 42
    Программа кодирования : mkvmerge v8.3.0 (\'Over the Horizon\') 64bit
    Библиотека кодирования : libebml v1.3.1 + libmatroska v1.4.2
    Видео
    Идентификатор : 1
    Формат : AVC
    Формат/Информация : Advanced Video Codec
    Профиль формата : High@L4.1
    Настройки формата : CABAC/4 Ref Frames
    Параметр CABAC формата : Да
    Параметр RefFrames формата : 4 кадра
    Идентификатор кодека : V_MPEG4/ISO/AVC
    Продолжительность : 2 ч. 31 м.
    Вид битрейта : Переменный
    Битрейт : 6524 Кбит/сек
    Максимальный битрейт : 7300 Кбит/сек
    Ширина : 1920 пикселей
    Высота : 800 пикселей
    Соотношение сторон : 2, 40: 1
    Режим частоты кадров : Постоянный
    Частота кадров : 23, 976 (24000/1001) кадра/сек
    Стандарт вещания : Component
    Цветовое пространство : YUV
    Субдискретизация насыщенности : 4: 2: 0
    Битовая глубина : 8 бит
    Тип развёртки : Прогрессивная
    Бит/(Пиксели*Кадры) : 0.177
    Размер потока : 6, 92 Гбайт (94%)
    Язык : English
    Default : Да
    Forced : Нет
    Цветовой диапазон : Limited
    Основные цвета : BT.709
    Характеристики трансфера : BT.709
    Коэффициенты матрицы : BT.709
    Аудио
    Идентификатор : 2
    Формат : AC-3
    Формат/Информация : Audio Coding 3
    Коммерческое название : Dolby Digital
    Идентификатор кодека : A_AC3
    Продолжительность : 2 ч. 31 м.
    Вид битрейта : Постоянный
    Битрейт : 384 Кбит/сек
    Каналы : 2 канала
    ChannelLayout : L R
    Частота : 48, 0 КГц
    Частота кадров : 31, 250 кадров/сек (1536 SPF)
    Битовая глубина : 16 бит
    Метод сжатия : С потерями
    Размер потока : 417 Мбайт (6%)
    Язык : Russian
    ServiceKind/String : Complete Main
    Default : Да
    Forced : Нет

    Скриншоты для ознакомления



    Все одноименные релизы в Клубе
    Время раздачи: 24/7 (до появления первых 3-5 скачавших)

    Онлайн видео Ford против Ferrari



    Ford против Ferrari/Ford v Ferrari (2019) WEBRip [H.264/1080p-LQ] [Line, AD]
    Рейтинг →
     (голосов: 1, оценка 4/5, голосовать можно 1 раз )

    Другие торренты по теме:

  • Ford против Ferrari / Ford v Ferrari (2019) WEBRip [Line, AD]
  • Ford против Ferrari / Ford v Ferrari (2019) WEBRip [H.264] [Line, AD]
  • Ford против Ferrari / Ford v Ferrari (2019) WEBRip [H.264 / 720p-LQ] [Line, AD]
  • Ford против Ferrari / Ford v Ferrari (2019) WEBRip [EN / RU, EN Sub]
  • Ford против Ferrari / Ford v Ferrari (2019) WEBRip [UKR] [Line]
  • Ford против Ferrari / Ford v Ferrari (2019) WEBRip [H.264] [UKR] [Line]
  • Ford против Ferrari / Ford v Ferrari (2019) WEBRip [H.264] [EN / RU, EN Sub]
  • Ford против Ferrari / Ford v Ferrari (2019) WEBRip [H.264 / 1080p-LQ] [UKR, EN / EN Sub] [Line]


    • Комментарии (0):

      Информация

      Информация

        Посетители, находящиеся в группе Гости, не могут оставлять комментарии в данной новости.

        ↓ Меню




        ↓ Опрос

        Вы добавили сайт в закладки?
        Да
        Нет


        Популярное