.
Авторизация | Регистрация
bitok.xyz
» » Два Папы / The Two Popes (2019) WEB-DL [H.264 / 1080p-LQ] торрент скачать бесплатно


    Два Папы / The Two Popes (2019) WEB-DL [H.264 / 1080p-LQ] торрент скачать бесплатно

    Дата: 30-12-2019, 05:00 | .torrent скачали: 0

    Два Папы / The Two Popes (2019) WEB-DL [H.264 / 1080p-LQ]Производство: Великобритания, Италия, Аргентина, США/NetFlix
    Жанр: Драма, комедия, биография
    Режиссер: Фернанду Мейреллиш

    Актеры
    Энтони Хопкинс, Джонатан Прайс, Хуан Минухин, Луис Ньекко, Кристина Банегас, Мария Уседо, Ренато Скарпа, Сидни Коул, Акилле Бруньини, Федерико Торре

    Описание

    История духовного пути и избрания Папы Римского Франциска, который в 2013 году неохотно сменил в Ватикане отрекшегося Папу Бенедикта XVI. Два самых влиятельных лидера католической церкви пытаются каждый по-своему укрепить в вере современный мир и самих себя.

    Рейтинг MPAA: PG-13 (детям до 13 лет просмотр нежелателен)
    Дата мировой премьеры: 31 августа 2019
    Релиз от: mike7025
    Продолжительность: 02: 05: 58
    Качество видео: WEB-DL
    Перевод: Дублированный, многоголосый профессиональный
    Субтитры: Русские (forced, full), английские, французские, немецкие
    Видео: AVC/H.264, 1920x1080, ~6810 Kbps
    Аудио 1: Е-AC3, 6 ch, 640 Kbps - Русский (Dub, Netflix)
    Аудио 2: AC3, 6 ch, 448 Kbps - Русский (MVO, Jaskier)
    Аудио 3: E-AC3+Atmos, 6 ch, 768 Kbps - Английский
    General
    Unique ID : 95423710216078901924204460807295345563 (0x47C9F026BACAC03C72825DCC6164239B)
    Complete name : G: The.Two.Popes.2019.NF.WEB-DL.1080p.mkv
    Format : Matroska
    Format version : Version 4/Version 2
    File size : 7.51 GiB
    Duration : 2 h 5 min
    Overall bit rate mode : Variable
    Overall bit rate : 8 529 kb/s
    Encoded date : UTC 2019-12-29 08: 26: 24
    Writing application : mkvmerge v20.0.0 (\'I Am The Sun\') 64-bit
    Writing library : libebml v1.3.5 + libmatroska v1.4.8
    Video
    ID : 1
    Format : AVC
    Format/Info : Advanced Video Codec
    Format profile : Main@L4
    Format settings : CABAC/3 Ref Frames
    Format settings, CABAC : Yes
    Format settings, RefFrames : 3 frames
    Codec ID : V_MPEG4/ISO/AVC
    Duration : 2 h 5 min
    Bit rate mode : Variable
    Bit rate : 6 810 kb/s
    Maximum bit rate : 10.2 Mb/s
    Width : 1 920 pixels
    Height : 1 080 pixels
    Display aspect ratio : 16: 9
    Frame rate mode : Constant
    Frame rate : 24.000 FPS
    Color space : YUV
    Chroma subsampling : 4: 2: 0
    Bit depth : 8 bits
    Scan type : Progressive
    Bits/(Pixel*Frame) : 0.137
    Stream size : 5.87 GiB (78%)
    Writing library : x264 core 148 r2715 7e75228
    Encoding settings : cabac=1/ref=3/deblock=1: 0: 0/analyse=0x1: 0x111/me=umh/subme=10/psy=1/psy_rd=1.00: 0.00/mixed_ref=1/me_range=24/chroma_me=1/trellis=2/8x8dct=0/cqm=0/deadzone=21, 11/fast_pskip=1/chroma_qp_offset=-2/threads=6/lookahead_threads=1/sliced_threads=0/nr=0/decimate=1/interlaced=0/bluray_compat=0/stitchable=1/constrained_intra=0/bframes=2/b_pyramid=0/b_adapt=2/b_bias=0/direct=3/weightb=1/open_gop=0/weightp=2/keyint=250/keyint_min=24/scenecut=0/intra_refresh=0/rc_lookahead=48/rc=2pass/mbtree=1/bitrate=6810/ratetol=1.0/qcomp=0.50/qpmin=6/qpmax=51/qpstep=4/cplxblur=20.0/qblur=0.5/vbv_maxrate=10215/vbv_bufsize=13620/nal_hrd=vbr/filler=0/ip_ratio=1.40/aq=1: 1.00
    Language : English
    Default : Yes
    Forced : No
    Audio #1
    ID : 2
    Format : E-AC-3
    Format/Info : Enhanced Audio Coding 3
    Codec ID : A_EAC3
    Duration : 2 h 5 min
    Bit rate mode : Constant
    Bit rate : 640 kb/s
    Channel(s) : 6 channels
    Channel positions : Front: L C R, Side: L R, LFE
    Sampling rate : 48.0 kHz
    Frame rate : 187.500 FPS (256 SPF)
    Compression mode : Lossy
    Stream size : 577 MiB (8%)
    Title : Dub
    Language : Russian
    Service kind : Complete Main
    Default : Yes
    Forced : No
    Audio #2
    ID : 3
    Format : AC-3
    Format/Info : Audio Coding 3
    Codec ID : A_AC3
    Duration : 2 h 5 min
    Bit rate mode : Constant
    Bit rate : 448 kb/s
    Channel(s) : 6 channels
    Channel positions : Front: L C R, Side: L R, LFE
    Sampling rate : 48.0 kHz
    Frame rate : 31.250 FPS (1536 SPF)
    Bit depth : 16 bits
    Compression mode : Lossy
    Stream size : 404 MiB (5%)
    Title : MVO Jaskier
    Language : Russian
    Service kind : Complete Main
    Default : No
    Forced : No
    Audio #3
    ID : 4
    Format : E-AC-3
    Format/Info : Enhanced Audio Coding 3
    Format profile : E-AC-3+Atmos/E-AC-3
    Codec ID : A_EAC3
    Duration : 2 h 5 min
    Bit rate mode : Constant
    Bit rate : 768 kb/s
    Channel(s) : 15 objects/6 channels
    Channel positions : 15 objects/Front: L C R, Side: L R, LFE
    Sampling rate : 48.0 kHz
    Frame rate : 187.500 FPS (256 SPF)
    Compression mode : Lossy
    Stream size : 692 MiB (9%)
    Language : English
    Service kind : Complete Main
    Default : No
    Forced : No
    Text #1
    ID : 5
    Format : UTF-8
    Codec ID : S_TEXT/UTF8
    Codec ID/Info : UTF-8 Plain Text
    Duration : 1 h 57 min
    Bit rate : 32 b/s
    Count of elements : 579
    Stream size : 28.0 KiB (0%)
    Title : forced
    Language : Russian
    Default : Yes
    Forced : No
    Text #2
    ID : 6
    Format : UTF-8
    Codec ID : S_TEXT/UTF8
    Codec ID/Info : UTF-8 Plain Text
    Duration : 2 h 4 min
    Bit rate : 91 b/s
    Count of elements : 1711
    Stream size : 84.0 KiB (0%)
    Language : Russian
    Default : No
    Forced : No
    Text #3
    ID : 7
    Format : UTF-8
    Codec ID : S_TEXT/UTF8
    Codec ID/Info : UTF-8 Plain Text
    Duration : 2 h 0 min
    Bit rate : 14 b/s
    Count of elements : 496
    Stream size : 12.9 KiB (0%)
    Title : forced
    Language : English
    Default : No
    Forced : No
    Text #4
    ID : 8
    Format : UTF-8
    Codec ID : S_TEXT/UTF8
    Codec ID/Info : UTF-8 Plain Text
    Duration : 2 h 1 min
    Bit rate : 64 b/s
    Count of elements : 1913
    Stream size : 58.0 KiB (0%)
    Language : English
    Default : No
    Forced : No
    Text #5
    ID : 9
    Format : UTF-8
    Codec ID : S_TEXT/UTF8
    Codec ID/Info : UTF-8 Plain Text
    Duration : 2 h 4 min
    Bit rate : 56 b/s
    Count of elements : 1776
    Stream size : 52.0 KiB (0%)
    Language : French
    Default : No
    Forced : No
    Text #6
    ID : 10
    Format : UTF-8
    Codec ID : S_TEXT/UTF8
    Codec ID/Info : UTF-8 Plain Text
    Duration : 2 h 4 min
    Bit rate : 54 b/s
    Count of elements : 1775
    Stream size : 49.9 KiB (0%)
    Language : German
    Default : No
    Forced : No

    Скриншоты для ознакомления




    Все одноименные релизы в Клубе
    Время раздачи: 24/7 (до появления первых 3-5 скачавших)

    Онлайн видео Два Папы



    Два Папы/The Two Popes (2019) WEB-DL [H.264/1080p-LQ]
    Рейтинг →
     (голосов: 1, оценка 3/5, голосовать можно 1 раз )

    Другие торренты по теме:

  • Два Папы / The Two Popes (2019) WEB-DL [H.264 / 1080p-LQ] [PR]
  • Два Папы / The Two Popes (2019) WEB-DL [H.264 / 720p-LQ]
  • Два Папы / The Two Popes (2019) WEBRip [H.265 / 2160p-LQ] [4K, HDR, 10-bit]


    • Комментарии (0):

      Информация

      Информация

        Посетители, находящиеся в группе Гости, не могут оставлять комментарии в данной новости.

        ↓ Меню




        ↓ Опрос

        Вы добавили сайт в закладки?
        Да
        Нет


        Популярное