.
Авторизация | Регистрация
bitok.xyz
» » Окей, Лекси! / Jexi (2019) WEB-DL [H.264 / 1080p] торрент скачать бесплатно


    Окей, Лекси! / Jexi (2019) WEB-DL [H.264 / 1080p] торрент скачать бесплатно

    Дата: 30-12-2019, 05:00 | .torrent скачали: 0

    Окей, Лекси! / Jexi (2019) WEB-DL [H.264 / 1080p]Производство: США, CBS Films, Entertainment One
    Жанр: комедия, мелодрама, фантастика
    Режиссер: Джон Лукас, Скотт Мур

    Актеры
    Адам Дивайн, Александра Шипп, Роуз Бирн, Рон Фанчес, Шарлин Йи, Майкл Пенья, Ванда Сайкс, Скотт Мескади, Джастин Хартли, Гэвин Рут

    Описание

    Лекси знает о вас все. Она видела все ваши неприличные фотки, знает, о чем вы шепчетесь во время секса, что едите по ночам и как называете своего начальника в секретных чатах. Она - виртуальный помощник из вашего мобильника, и сегодня у нее очень плохое настроение.

    Возраст: 18+ (зрителям, достигшим 18 лет. запрещено для детей)
    Рейтинг MPAA: R (лицам до 17 лет обязательно присутствие взрослого)
    Дата российской премьеры: 17.10.2019
    Релиз от: Селезень
    Продолжительность: 01: 24: 23
    Качество видео: WEB-DL Amazon
    Перевод: Дублированный (iTunes)
    Субтитры: английские
    Видео: AVC/H.264, 1920x800, ~8787 Kbps
    Аудио 1: AC3, 5.1, 384 Kbps - русский (DUB iTunes)
    Аудио 2: E-AC3, 5.1, 640 Kbps - английский
    General
    Unique ID : 112713460869099552026569798529656417064 (0x54CBD2AC59417B86C90DCB0F3DDDEB28)
    Complete name : Jexi.2019.AMZN.D.WEB-DL.1080p.seleZen.mkv
    Format : Matroska
    Format version : Version 4
    File size : 5.78 GiB
    Duration : 1 h 24 min
    Overall bit rate : 9 814 kb/s
    Movie name : Jexi 2019 from селезень
    Encoded date : UTC 2019-12-26 20: 38: 07
    Writing application : mkvmerge v40.0.0 (\'Old Town Road + Pony\') 64-bit
    Writing library : libebml v1.3.9 + libmatroska v1.5.2
    Video
    ID : 1
    Format : AVC
    Format/Info : Advanced Video Codec
    Format profile : High@L4
    Format settings : CABAC/4 Ref Frames
    Format settings, CABAC : Yes
    Format settings, Reference : 4 frames
    Codec ID : V_MPEG4/ISO/AVC
    Duration : 1 h 24 min
    Bit rate mode : Constant
    Bit rate : 8 787 kb/s
    Nominal bit rate : 10 000 kb/s
    Width : 1 920 pixels
    Height : 800 pixels
    Display aspect ratio : 2.40: 1
    Frame rate mode : Constant
    Frame rate : 23.976 (24000/1001) FPS
    Color space : YUV
    Chroma subsampling : 4: 2: 0
    Bit depth : 8 bits
    Scan type : Progressive
    Bits/(Pixel*Frame) : 0.239
    Stream size : 5.18 GiB (90%)
    Language : English
    Default : Yes
    Forced : No
    Color range : Limited
    Color primaries : BT.709
    Transfer characteristics : BT.709
    Matrix coefficients : BT.709
    Audio #1
    ID : 2
    Format : AC-3
    Format/Info : Audio Coding 3
    Commercial name : Dolby Digital
    Codec ID : A_AC3
    Duration : 1 h 24 min
    Bit rate mode : Constant
    Bit rate : 384 kb/s
    Channel(s) : 6 channels
    Channel layout : L R C LFE Ls Rs
    Sampling rate : 48.0 kHz
    Frame rate : 31.250 FPS (1536 SPF)
    Bit depth : 16 bits
    Compression mode : Lossy
    Stream size : 232 MiB (4%)
    Title : iTunes
    Language : Russian
    Service kind : Complete Main
    Default : Yes
    Forced : Yes
    Audio #2
    ID : 3
    Format : E-AC-3
    Format/Info : Enhanced AC-3
    Commercial name : Dolby Digital Plus
    Codec ID : A_EAC3
    Duration : 1 h 24 min
    Bit rate mode : Constant
    Bit rate : 640 kb/s
    Channel(s) : 6 channels
    Channel layout : L R C LFE Ls Rs
    Sampling rate : 48.0 kHz
    Frame rate : 31.250 FPS (1536 SPF)
    Compression mode : Lossy
    Stream size : 386 MiB (7%)
    Title : Original
    Language : English
    Service kind : Complete Main
    Default : No
    Forced : No
    Text #1
    ID : 4
    Format : UTF-8
    Codec ID : S_TEXT/UTF8
    Codec ID/Info : UTF-8 Plain Text
    Duration : 1 h 19 min
    Bit rate : 89 b/s
    Count of elements : 1800
    Stream size : 51.9 KiB (0%)
    Title : Full
    Language : English
    Default : No
    Forced : No
    Text #2
    ID : 5
    Format : UTF-8
    Codec ID : S_TEXT/UTF8
    Codec ID/Info : UTF-8 Plain Text
    Duration : 1 h 19 min
    Bit rate : 95 b/s
    Count of elements : 1940
    Stream size : 55.7 KiB (0%)
    Title : SDH
    Language : English
    Default : No
    Forced : No

    Скриншоты для ознакомления



    Все одноименные релизы в Клубе
    Время раздачи: 24/7 (мультитрекер)

    Онлайн видео Окей, Лекси!



    Окей, Лекси!/Jexi (2019) WEB-DL [H.264/1080p]
    Рейтинг →
     (голосов: 1, оценка 4/5, голосовать можно 1 раз )

    Другие торренты по теме:

  • Окей, Лекси! / Jexi (2019) BDRip [1080p] ATV
  • Окей, Лекси! / Jexi (2019) CAMRip [H.264 / 720p-LQ] [MVO] [AD]
  • Окей, Лекси! / Jexi (2019) WEB-DL [H.264 / 1080p] [Online]
  • Окей, Лекси! / Jexi (2019) WEB-DL [H.264 / 720p-LQ]
  • Окей, Лекси! / Jexi (2019) WEB-DLRip
  • Окей, Лекси! / Jexi (2019) WEB-DLRip [H.264]
  • Окей, Лекси! / Jexi (2019) WEB-DLRip
  • Окей, Лекси! / Jexi (2019) BDRip [H.264 / 1080p] [PR]


    • Комментарии (0):

      Информация

      Информация

        Посетители, находящиеся в группе Гости, не могут оставлять комментарии в данной новости.

        ↓ Меню




        ↓ Опрос

        Вы добавили сайт в закладки?
        Да
        Нет


        Популярное