.
Авторизация | Регистрация
bitok.xyz
» » Окей, Лекси! / Jexi (2019) WEB-DLRip [H.264] торрент скачать бесплатно


    Окей, Лекси! / Jexi (2019) WEB-DLRip [H.264] торрент скачать бесплатно

    Дата: 30-12-2019, 05:00 | .torrent скачали: 0

    Окей, Лекси! / Jexi (2019) WEB-DLRip [H.264]Производство: США, CBS Films, Entertainment One
    Жанр: Комедия
    Режиссер: Джон Лукас, Скотт Мур
    Продюсер: Сюзанн Тодд, Марк Камине

    Актеры
    Адам Дивайн, Александра Шипп, Роуз Бирн, Рон Фанчес, Шарлин Йи, Майкл Пенья, Ванда Сайкс, Скотт Мескади, Джастин Хартли, Гэвин Рут

    Описание

    Лекси знает о вас все. Она видела все ваши неприличные фотки, знает, о чем вы шепчетесь во время секса, что едите по ночам и как называете своего начальника в секретных чатах. Она — виртуальный помощник из вашего мобильника, и сегодня у нее очень плохое настроение.

    Возраст: 18+ (зрителям, достигшим 18 лет. запрещено для детей)
    Рейтинг MPAA: R (лицам до 17 лет обязательно присутствие взрослого)
    Дата мировой премьеры: 10 октября 2019
    Дата российской премьеры: 17 октября 2019, Capella Film
    Релиз от: OlLanDGroup
    Продолжительность: 01: 23: 51
    Качество видео: WEB-DLRip
    Перевод: Дублированный (iTunes)
    Субтитры: Отсутствуют
    Видео: AVC/H.264, 720x302, ~1170 kbps
    Аудио: AAC, 2 ch, 72 kbps - Русский (iTunes)
    General
    Unique ID : 37011999877377088211012417705669886241 (0x1BD8407BA30D5D71AB12DE6486CD0121)
    Complete name : C: UsersSkandarVideosJexi.2019.WEB-DLRip(AVC).OlLanDGroup.mkv
    Format : Matroska
    Format version : Version 4
    File size : 745 MiB
    Duration : 1 h 23 min
    Overall bit rate : 1 243 kb/s
    Movie name : Jexi.2019.WEB-DLRip(AVC).OlLanDGroup#Skandar#
    Encoded date : UTC 2019-12-29 09: 27: 49
    Writing application : mkvmerge v31.0.0 (\'Dolores In A Shoestand\') 64-bit
    Writing library : libebml v1.3.6 + libmatroska v1.4.9
    Video
    ID : 1
    Format : AVC
    Format/Info : Advanced Video Codec
    Format profile : High@L4.1
    Format settings : CABAC/10 Ref Frames
    Format settings, CABAC : Yes
    Format settings, ReFrames : 10 frames
    Codec ID : V_MPEG4/ISO/AVC
    Duration : 1 h 23 min
    Bit rate : 1 170 kb/s
    Width : 720 pixels
    Height : 302 pixels
    Display aspect ratio : 2.40: 1
    Frame rate mode : Constant
    Frame rate : 24.000 FPS
    Color space : YUV
    Chroma subsampling : 4: 2: 0
    Bit depth : 8 bits
    Scan type : Progressive
    Bits/(Pixel*Frame) : 0.224
    Stream size : 701 MiB (94%)
    Title : Jexi.2019.WEB-DLRip(AVC).OlLanDGroup#Skandar#
    Writing library : x264 core 146 r2538 121396c
    Encoding settings : cabac=1/ref=10/deblock=1: -3: -3/analyse=0x3: 0x133/me=umh/subme=11/psy=1/psy_rd=0.97: 0.05/mixed_ref=1/me_range=48/chroma_me=1/trellis=2/8x8dct=1/cqm=0/deadzone=21, 11/fast_pskip=0/chroma_qp_offset=-3/threads=6/lookahead_threads=1/sliced_threads=0/nr=0/decimate=0/interlaced=0/bluray_compat=0/constrained_intra=0/bframes=11/b_pyramid=2/b_adapt=2/b_bias=0/direct=3/weightb=1/open_gop=0/weightp=2/keyint=240/keyint_min=23/scenecut=40/intra_refresh=0/rc_lookahead=40/rc=2pass/mbtree=0/bitrate=1170/ratetol=1.0/qcomp=0.60/qpmin=0/qpmax=69/qpstep=4/cplxblur=20.0/qblur=0.5/vbv_maxrate=50000/vbv_bufsize=62500/nal_hrd=none/filler=0/ip_ratio=1.40/pb_ratio=1.30/aq=1: 1.00
    Language : English
    Default : Yes
    Forced : No
    Audio
    ID : 2
    Format : AAC LC SBR
    Format/Info : Advanced Audio Codec Low Complexity with Spectral Band Replication
    Commercial name : HE-AAC
    Format settings : Explicit
    Codec ID : A_AAC-2
    Duration : 1 h 23 min
    Bit rate : 72.0 kb/s
    Channel(s) : 2 channels
    Channel layout : L R
    Sampling rate : 48.0 kHz
    Frame rate : 23.438 FPS (2048 SPF)
    Compression mode : Lossy
    Delay relative to video : 31 ms
    Stream size : 43.2 MiB (6%)
    Title : DUB | iTunes Russia
    Language : Russian
    Default : Yes
    Forced : No
    Menu
    00: 00: 00.000 : en: Глава 1
    00: 08: 28.333 : en: Глава 2
    00: 16: 32.458 : en: Глава 3
    00: 24: 49.041 : en: Глава 4
    00: 33: 02.166 : en: Глава 5
    00: 41: 10.291 : en: Глава 6
    00: 49: 22.707 : en: Глава 7
    00: 58: 30.165 : en: Глава 8
    01: 07: 07.498 : en: Глава 9
    01: 15: 12.706 : en: Глава 10

    Скриншоты для ознакомления



    Все одноименные релизы в Клубе
    Время раздачи: 24/7 (круглосуточно) (до появления первых 3-5 скачавших)

    Онлайн видео Окей, Лекси!



    Окей, Лекси!/Jexi (2019) WEB-DLRip [H.264]
    Рейтинг →
     (голосов: 1, оценка 5/5, голосовать можно 1 раз )

    Другие торренты по теме:

  • Окей, Лекси! / Jexi (2019) CAMRip [H.264 / 720p-LQ] [MVO] [AD]
  • Окей, Лекси! / Jexi (2019) WEB-DL [H.264 / 1080p] [Online]
  • Окей, Лекси! / Jexi (2019) WEB-DL [H.264 / 720p-LQ]
  • Окей, Лекси! / Jexi (2019) WEB-DLRip
  • Окей, Лекси! / Jexi (2019) WEB-DL [H.264 / 1080p]
  • Окей, Лекси! / Jexi (2019) WEB-DLRip
  • Окей, Лекси! / Jexi (2019) BDRip [H.264 / 1080p] [PR]
  • Окей, Лекси! / Jexi (2019) BDRemux [H.264 / 1080p]


    • Комментарии (0):

      Информация

      Информация

        Посетители, находящиеся в группе Гости, не могут оставлять комментарии в данной новости.

        ↓ Меню




        ↓ Опрос

        Вы добавили сайт в закладки?
        Да
        Нет


        Популярное