.
Авторизация | Регистрация
bitok.xyz
» » Джерси / Jersey (2019) WEB-DL [H.264 / 1080p-LQ] [AD] [PR] торрент скачать бесплатно


    Джерси / Jersey (2019) WEB-DL [H.264 / 1080p-LQ] [AD] [PR] торрент скачать бесплатно

    Дата: 30-12-2019, 05:00 | .torrent скачали: 0

    Джерси / Jersey (2019) WEB-DL [H.264 / 1080p-LQ] [AD] [PR]Производство: Индия/Sithara Entertainments
    Жанр: Драма, спорт
    Режиссер: Gowtam Tinnanuri

    Актеры
    Нани, Шраддха Шринатх, Хэриш Кальян, Ronit Kamra, Charan Ram, Viswant Duddumpudi, Sanusha
    Сатхьярадж, Сампат Радж, Шишир Шарма

    Описание

    Талантливый крикетист Арджун 10 лет назад забросил крикет и стал безработным. Теперь, он примерный семьянин, у него прекрасная супруга и смышлёный сын. Однажды, столкнувшись с трудной ситуацией в жизни, и не имея в кармане ни гроша, он решает вернуться в спорт...

    Дата мировой премьеры: 18 апреля 2019
    Продолжительность: 02: 30: 52
    Качество видео: WEB-DL
    Перевод: Многоголосый закадровый, профессиональный (HONEYHASEENA)
    Субтитры: Отсутствуют
    Реклама: Присутствует логотип.
    Видео: AVC/H.264, 1920x1080, ~3416 Kbps
    Аудио: AC3, 2 ch, 192 Kbps
    Общее
    Уникальный идентификатор : 226741811716989529816185780103267431946 (0xAA94E26D7AF2AAC0928B7A1639F7360A)
    Полное имя : D: NNMДжерсиJersey.2019.WEB-DL.1080p-LQ.mkv
    Формат : Matroska
    Версия формата : Version 4
    Размер файла : 3, 80 Гбайт
    Продолжительность : 2 ч. 30 м.
    Общий поток : 3609 Кбит/сек
    Дата кодирования : UTC 2019-12-29 06: 54: 49
    Программа кодирования : mkvmerge v8.3.0 (\'Over the Horizon\') 32bit
    Библиотека кодирования : libebml v1.3.1 + libmatroska v1.4.2/Lavf58.12.100
    Видео
    Идентификатор : 1
    Формат : AVC
    Формат/Информация : Advanced Video Codec
    Профиль формата : Main@L4
    Настройки формата : CABAC/3 Ref Frames
    Параметр CABAC формата : Да
    Параметр RefFrames формата : 3 кадра
    Параметр GOP формата : M=1, N=25
    Идентификатор кодека : V_MPEG4/ISO/AVC
    Продолжительность : 2 ч. 30 м.
    Битрейт : 3416 Кбит/сек
    Ширина : 1920 пикселей
    Высота : 1080 пикселей
    Соотношение сторон : 16: 9
    Режим частоты кадров : Постоянный
    Частота кадров : 25, 000 кадров/сек
    Цветовое пространство : YUV
    Субдискретизация насыщенности : 4: 2: 0
    Битовая глубина : 8 бит
    Тип развёртки : Прогрессивная
    Бит/(Пиксели*Кадры) : 0.066
    Размер потока : 3, 60 Гбайт (95%)
    Default : Да
    Forced : Нет
    Аудио
    Идентификатор : 2
    Формат : AC-3
    Формат/Информация : Audio Coding 3
    Коммерческое название : Dolby Digital
    Идентификатор кодека : A_AC3
    Продолжительность : 2 ч. 30 м.
    Вид битрейта : Постоянный
    Битрейт : 192 Кбит/сек
    Каналы : 2 канала
    ChannelLayout : L R
    Частота : 48, 0 КГц
    Частота кадров : 31, 250 кадров/сек (1536 SPF)
    Метод сжатия : С потерями
    Размер потока : 207 Мбайт (5%)
    ServiceKind/String : Complete Main
    Default : Да
    Forced : Нет

    Скриншоты для ознакомления



    Все одноименные релизы в Клубе Время раздачи: 24/7 (до появления первых 3-5 скачавших)

    Онлайн видео Джерси



    Джерси/Jersey (2019) WEB-DL [H.264/1080p-LQ] [AD] [PR]
    Рейтинг →
     (голосов: 1, оценка 3/5, голосовать можно 1 раз )

    Другие торренты по теме:

  • Парни из Джерси / Jersey Boys (2014) HDRip скачать через торрент бесплатно
  • Парни из Джерси / Jersey Boys (2014) BDRip [H.264 / 1080p] скачать через торрент бесплатно


    • Комментарии (0):

      Информация

      Информация

        Посетители, находящиеся в группе Гости, не могут оставлять комментарии в данной новости.

        ↓ Меню




        ↓ Опрос

        Вы добавили сайт в закладки?
        Да
        Нет


        Популярное