.
Авторизация | Регистрация
bitok.xyz
» » Ли Бай: пламя преисподней / Li Bai Zhi Tian Huo Liao Yuan (2019) WEBRip [H.264 / 720p-LQ] [MVO] [AD] торрент скачать бесплатно


    Ли Бай: пламя преисподней / Li Bai Zhi Tian Huo Liao Yuan (2019) WEBRip [H.264 / 720p-LQ] [MVO] [AD] торрент скачать бесплатно

    Дата: 30-12-2019, 05:00 | .torrent скачали: 1

    Ли Бай: пламя преисподней / Li Bai Zhi Tian Huo Liao Yuan (2019) WEBRip [H.264 / 720p-LQ] [MVO] [AD]Производство: Китай/Gongyeah Pictures
    Жанр: Боевик, драма, история, фэнтези
    Режиссер: Li Boxun

    Актеры
    Liu Chengjun, Li Dongguo, Ma Muxuan, Cao Yucheng, Ziwen Zhang ...

    Описание

    Таинственный незнакомец в чёрной маске спасает в Чанъане невинных людей от местных разбойников. В это же время император приглашает ко двору лучших поэтов современности, среди которых присутствует и Ли Бай, которого никак не удаётся увидеть вживую.

    Дата мировой премьеры: 6 сентября 2019
    Продолжительность: 01: 35: 39
    Качество видео: WEBRip
    Перевод: Многоголосый закадровый, любительский (КОЛОБОК)
    Субтитры: Китайские, английские (хардсаб)
    Реклама: Присутствует баннер.
    Видео: AVC/H.264, 1280x536, ~5292 Kbps
    Аудио: AC-3, 2 ch, 384 Kbps
    Общее
    Полное имя : D: NNMЛи БайHellfire.Li.Bai.2019.WEBRip.720p-LQ.mkv
    Формат : Matroska
    Версия формата : Version 2
    Размер файла : 3, 87 Гбайт
    Продолжительность : 1 ч. 35 м.
    Режим общего битрейта : Переменный
    Общий поток : 5791 Кбит/сек
    Программа кодирования : libmatroska 1.4.1
    Библиотека кодирования : SolveigMM Matroska Muxer Version 1.0.1502.31
    Видео
    Идентификатор : 1
    Формат : AVC
    Формат/Информация : Advanced Video Codec
    Профиль формата : High@L4.1
    Настройки формата : CABAC/4 Ref Frames
    Параметр CABAC формата : Да
    Параметр RefFrames формата : 4 кадра
    Идентификатор кодека : V_MPEG4/ISO/AVC
    Продолжительность : 1 ч. 35 м.
    Вид битрейта : Переменный
    Битрейт : 5292 Кбит/сек
    Номинальный битрейт : 6000 Кбит/сек
    Максимальный битрейт : 6000 Кбит/сек
    Ширина : 1280 пикселей
    Высота : 536 пикселей
    Соотношение сторон : 2, 40: 1
    Режим частоты кадров : Постоянный
    Частота кадров : 23, 976 (24000/1001) кадра/сек
    Стандарт вещания : Component
    Цветовое пространство : YUV
    Субдискретизация насыщенности : 4: 2: 0
    Битовая глубина : 8 бит
    Тип развёртки : Прогрессивная
    Бит/(Пиксели*Кадры) : 0.322
    Размер потока : 3, 54 Гбайт (91%)
    Default : Нет
    Forced : Нет
    Цветовой диапазон : Limited
    Основные цвета : BT.709
    Характеристики трансфера : BT.709
    Коэффициенты матрицы : BT.709
    Аудио
    Идентификатор : 2
    Формат : AC-3
    Формат/Информация : Audio Coding 3
    Коммерческое название : Dolby Digital
    Идентификатор кодека : A_AC3
    Продолжительность : 1 ч. 35 м.
    Вид битрейта : Постоянный
    Битрейт : 384 Кбит/сек
    Каналы : 2 канала
    ChannelLayout : L R
    Частота : 48, 0 КГц
    Частота кадров : 31, 250 кадров/сек (1536 SPF)
    Метод сжатия : С потерями
    Размер потока : 263 Мбайт (7%)
    Язык : Russian
    ServiceKind/String : Complete Main
    Default : Нет
    Forced : Нет

    Скриншоты для ознакомления



    Все одноименные релизы в Клубе Время раздачи: 24/7 (до появления первых 3-5 скачавших)

    Онлайн видео Ли Бай: пламя преисподней



    Ли Бай: пламя преисподней/Li Bai Zhi Tian Huo Liao Yuan (2019) WEBRip [H.264/720p-LQ] [MVO] [AD]
    Рейтинг →
     (голосов: 1, оценка 3/5, голосовать можно 1 раз )

    Другие торренты по теме:

  • James Newton Howard - Голодные игры: И вспыхнет пламя / The Hunger Games: Catching Fire (Original Motion Picture Score) (2013) [MP3|320 кб / с]<Soundtrack>
  • Dark Age: Лед и Пламя (2013) [Ru / En] (0.478) License
  • Эрик Аксл Сунд | Голодное пламя (2015) [FB2] скачать через торрент бесплатно
  • Голодные игры: И вспыхнет пламя / The Hunger Games: Catching Fire (2013) BDRip [720p] ATV скачать через торрент бесплатно
  • Голодные игры: И вспыхнет пламя / The Hunger Games: Catching Fire (2013) BDRip [1080p] ATV скачать через торрент бесплатно
  • Украинские сенсации. Адское пламя (13.06.2015) SATRip скачать через торрент бесплатно
  • Вернор Виндж | Пламя над бездной (2001) [PDF] скачать через торрент бесплатно
  • Сандра Браун | Пламя страсти (2015) [PDF, DJVU] скачать через торрент бесплатно


    • Комментарии (0):

      Информация

      Информация

        Посетители, находящиеся в группе Гости, не могут оставлять комментарии в данной новости.

        ↓ Меню




        ↓ Опрос

        Вы добавили сайт в закладки?
        Да
        Нет


        Популярное