.
Авторизация | Регистрация
bitok.xyz
» » Рожденный побеждать (Отчаянный мститель) / Born to Raise Hell (2010) BDRemux [VC-1 / 1080p] торрент скачать бесплатно

    Рожденный побеждать (Отчаянный мститель) / Born to Raise Hell (2010) BDRemux [VC-1 / 1080p] торрент скачать бесплатно

    Дата: 30-12-2019, 05:00 | .torrent скачали: 0

    Рожденный побеждать (Отчаянный мститель) / Born to Raise Hell (2010) BDRemux [VC-1 / 1080p]Производство: США/Steamroller Productions, Voltage Pictures
    Жанр: Боевик, Криминал
    Режиссер: Лауро Чартрэнд
    Продюсер: Филлип Б. Голдфайн, Стивен Сигал, Бинь Дань

    Актеры
    Стивен Сигал, Дан Бадарау, Даррен Шалави, Д. Нил Марк, Джордж Ремис, Клаудиу Блеонц, Мадалина Мариеску, Кэйлин Пуйа, Козмина Пэсэрин, Александра Коман

    Описание

    Секретный агент Интерпола Бобби никогда не нуждался ни в напарниках, ни в прикрытии, ни в излишней опеке своим начальством. Всякий раз, в самое пекло горячих точек попадал именно он, выбираясь из мясорубки целым и невредимым, побеждая боевиков, гангстеров, убийц и сумасшедших насильников. Похоже, на этот раз всё будет по-другому…
    Однажды ему было поручено задание — отследить поток контрабандных поставок оружия и наркотиков из Восточной Европы за границу, через Балканы. В то время, как агент установил слежку за главарём русской мафии, крупным наркодилером, глубоко внедрившись в его узкие круги, произошло столкновение местной мафии и русских гангстеров, оставивших умирать одного из раненных в перестрелке, одного из представителей Закона. Этим человеком оказался новый напарник Бобби.
    И теперь, мобилизуя весь свой потенциал, яростно и более, чем, уверенно смотря вперёд, Бобби решает отомстить тем, кто забыл, что есть месть и существует торжество справедливости. Он обязательно доберётся до своей цели и сметёт всех, кто решит преградить ему путь к намеченному. Отныне ни один человек не сможет его остановить…

    Возраст: 16+ (зрителям, достигшим 16 лет)
    Рейтинг MPAA: R (лицам до 17 лет обязательно присутствие взрослого)
    Релиз от: R.G. Goldenshara
    Продолжительность: 01: 36: 05
    Качество видео: BDRemux 1080p
    Перевод: Двухголосый профессиональный, Многоголосый профессиональный
    Субтитры: Датские
    Видео: VC-1, 1920x1080 (16: 9), ~17.2 Mbps, 23.976 fps
    Аудио #1: AC3, 6 ch, 48.0 KHz, 448 kbps | Русский - (DVO R5)
    Аудио #2: AC3, 2 ch, 48.0 KHz, 192 kbps | Русский - (DVO SDI Media)
    Аудио #3: AC3, 2 ch, 48.0 KHz, 192 kbps | Русский - (MVO РенТВ)
    Аудио #4: DTS-HD MA, 6 ch, 48.0 KHz, 3862 kbps | Английский
    General
    Unique ID : 241587011720268031896084982525335469588 (0xB5BFF74C15AAC96BA2935607B21C7E14)
    Complete name : E: Мои рипыРожденный побеждать.2010.BDRemux.1080p.R.G. Goldenshara.mkv
    Format : Matroska
    Format version : Version 4/Version 2
    File size : 14.7 GiB
    Duration : 1h 36mn
    Overall bit rate mode : Variable
    Overall bit rate : 21.9 Mbps
    Encoded date : UTC 2019-12-29 18: 00: 06
    Writing application : mkvmerge v6.8.0 (\'Theme for Great Cities\') 64bit built on Mar 2 2014 21: 34: 26
    Writing library : libebml v1.3.0 + libmatroska v1.4.1
    Video
    ID : 1
    Format : VC-1
    Format profile : Advanced@L3
    Codec ID : V_MS/VFW/FOURCC/WVC1
    Codec ID/Hint : Microsoft
    Duration : 1h 36mn
    Bit rate : 19.0 Mbps
    Width : 1 920 pixels
    Height : 1 080 pixels
    Display aspect ratio : 16: 9
    Frame rate mode : Constant
    Frame rate : 23.976 fps
    Chroma subsampling : 4: 2: 0
    Bit depth : 8 bits
    Scan type : Progressive
    Compression mode : Lossy
    Bits/(Pixel*Frame) : 0.383
    Stream size : 12.8 GiB (87%)
    Language : English
    Default : Yes
    Forced : No
    Audio #1
    ID : 2
    Format : AC-3
    Format/Info : Audio Coding 3
    Mode extension : CM (complete main)
    Format settings, Endianness : Big
    Codec ID : A_AC3
    Duration : 1h 36mn
    Bit rate mode : Constant
    Bit rate : 448 Kbps
    Channel(s) : 6 channels
    Channel positions : Front: L C R, Side: L R, LFE
    Sampling rate : 48.0 KHz
    Bit depth : 16 bits
    Compression mode : Lossy
    Stream size : 308 MiB (2%)
    Title : DVO R5
    Language : Russian
    Default : Yes
    Forced : No
    Audio #2
    ID : 3
    Format : AC-3
    Format/Info : Audio Coding 3
    Mode extension : CM (complete main)
    Format settings, Endianness : Big
    Codec ID : A_AC3
    Duration : 1h 36mn
    Bit rate mode : Constant
    Bit rate : 192 Kbps
    Channel(s) : 2 channels
    Channel positions : Front: L R
    Sampling rate : 48.0 KHz
    Bit depth : 16 bits
    Compression mode : Lossy
    Stream size : 132 MiB (1%)
    Title : DVO SDI Media
    Language : Russian
    Default : No
    Forced : No
    Audio #3
    ID : 4
    Format : AC-3
    Format/Info : Audio Coding 3
    Mode extension : CM (complete main)
    Format settings, Endianness : Big
    Codec ID : A_AC3
    Duration : 1h 36mn
    Bit rate mode : Constant
    Bit rate : 192 Kbps
    Channel(s) : 2 channels
    Channel positions : Front: L R
    Sampling rate : 48.0 KHz
    Bit depth : 16 bits
    Compression mode : Lossy
    Stream size : 132 MiB (1%)
    Title : MVO РенТВ
    Language : Russian
    Default : No
    Forced : No
    Audio #4
    ID : 5
    Format : DTS
    Format/Info : Digital Theater Systems
    Format profile : MA/Core
    Codec ID : A_DTS
    Duration : 1h 36mn
    Bit rate mode : Variable
    Bit rate : 1 576 Kbps/1 510 Kbps
    Channel(s) : 6 channels
    Channel positions : Front: L C R, Side: L R, LFE
    Sampling rate : 48.0 KHz
    Bit depth : 24 bits
    Compression mode : Lossless/Lossy
    Delay relative to video : 42ms
    Language : English
    Default : No
    Forced : No
    Text
    ID : 6
    Format : UTF-8
    Codec ID : S_TEXT/UTF8
    Codec ID/Info : UTF-8 Plain Text
    Language : Danish
    Default : No
    Forced : No
    Menu
    00: 00: 00.000 : en: Chapter 1
    00: 05: 00.000 : en: Chapter 2
    00: 10: 00.000 : en: Chapter 3
    00: 15: 00.000 : en: Chapter 4
    00: 20: 00.000 : en: Chapter 5
    00: 25: 00.000 : en: Chapter 6
    00: 30: 00.000 : en: Chapter 7
    00: 35: 00.000 : en: Chapter 8
    00: 40: 00.000 : en: Chapter 9
    00: 45: 00.000 : en: Chapter 10
    00: 50: 00.000 : en: Chapter 11
    00: 55: 00.000 : en: Chapter 12
    01: 00: 00.000 : en: Chapter 13
    01: 05: 00.000 : en: Chapter 14
    01: 10: 00.000 : en: Chapter 15
    01: 15: 00.000 : en: Chapter 16
    01: 20: 00.000 : en: Chapter 17
    01: 25: 00.000 : en: Chapter 18
    01: 30: 00.000 : en: Chapter 19
    01: 35: 00.000 : en: Chapter 20


    Онлайн видео Рожденный побеждать (Отчаянный мститель)


    Прямая ссылка скачивания через uTorrent


    Рожденный побеждать (Отчаянный мститель)/Born to Raise Hell (2010) BDRemux [VC-1/1080p]
    Рейтинг →
     (голосов: 1, оценка 3/5, голосовать можно 1 раз )

    Другие торренты по теме:

  • Николай Волковский | Александр Македонский. Рожденный побеждать (2017) [PDF]
  • Рожденный побеждать / Отчаянный мститель / Born to Raise Hell (2010) BDRip [H.264 / 1080p-LQ]


    • Комментарии (0):

      Информация

      Информация

        Посетители, находящиеся в группе Гости, не могут оставлять комментарии в данной новости.

        ↓ Меню




        ↓ Опрос

        Вы добавили сайт в закладки?
        Да
        Нет


        Популярное

        Полицейский с Рублёвки. Новогодний беспредел 2 (2019) CamRip [AD]

        (скачиваний: 1815)
        Властелин колец: Трилогия / The Lord of the Rings: Trilogy (2001,2002,2003) BDRip [H.264] [Extended Editions] скачать через торрент бесплатно

        (скачиваний: 663)
        Властелин колец / The Lord of the Rings (2001,2002,2003) BDRip [Extended Edition] [H.264 / 1080p-LQ] [Hi10P]

        (скачиваний: 655)
        Начало / Inception (2010) BDRip [H.265 / 1080p]

        (скачиваний: 629)
        Властелин колец / The Lord of the Rings (2001,2002,2003) BDRip [1080p] [Extended Edition] [Трилогия]

        (скачиваний: 607)
        Квартирник НТВ у Маргулиса. Новогодний выпуск (31.12.2019) WEB-DL [H.264 / 1080p-LQ]

        (скачиваний: 452)
        Каникулы off-line (2018) WEBRip

        (скачиваний: 432)
        Хоббит: Трилогия / The Hobbit: Trilogy (2012, 2013, 2014) BDRip [H.265 / 1080p-LQ] [10-bit] [Расширенная версия]

        (скачиваний: 396)
        Властелин колец / The Lord of the Rings (2001,2002,2003) BDRip [1080p] [Extended Edition] [Трилогия] скачать через торрент бесплатно

        (скачиваний: 264)
        Во все тяжкие / Breaking Bad (2008-2013) BDRip [H.264 / 1080p] (сезон 1-5, серии 1-62 из 62) Кубик в Кубе, LostFilm скачать через торрент бесплатно

        (скачиваний: 252)