.
Авторизация | Регистрация
bitok.xyz
» » 3000 миль до Грейслэнда / 3000 Miles to Graceland (2001) BDRip [H.264 / 1080p] торрент скачать бесплатно


    3000 миль до Грейслэнда / 3000 Miles to Graceland (2001) BDRip [H.264 / 1080p] торрент скачать бесплатно

    Дата: 30-12-2019, 05:00 | .torrent скачали: 0

    3000 миль до Грейслэнда / 3000 Miles to Graceland (2001) BDRip [H.264 / 1080p]Производство: США/Franchise Pictures, Epsilon Motion Pictures, 3000 Miles Productions
    Жанр: Боевик, триллер, комедия, криминал
    Режиссер: Дэмиен Лихтенштайн

    Актеры
    Курт Расселл, Кевин Костнер, Кортни Кокс, Кристиан Слэйтер, Кевин Поллак, Дэвид Аркетт, Джон Ловиц, Хоуи Лонг, Томас Хейден Чёрч, Боким Вудбайн

    Описание

    Майкл только что вышел из тюрьмы, но долго сидеть без работы ему не придется — его тут же подбирает на большое дело его знакомый Мерфи. План его прост и одновременно нагл — пробравшись на слет подражателей Элвиса Пресли под видом его имитаторов, ограбить одно из самых больших казино в Лас Вегасе.
    Все проходит довольно гладко, однако, как водится, проблемы начинаются, когда герои начинают делить награбленное. В четко очерченный круг исполнителей неожиданно влезает одинокая мать с сыном, с которыми Майкл познакомился еще до налета, а на закуску выясняется, что Мерфи вообще-то не намерен делиться ни с кем, и своих бывших соратников он устраняет весьма традиционным способом — пуля в лоб и все дела.

    Возраст: 18+ (зрителям, достигшим 18 лет. запрещено для детей)
    Рейтинг MPAA: R (лицам до 17 лет обязательно присутствие взрослого)
    Продолжительность: 02: 04: 42
    Качество видео: BDRip (1080p)
    Перевод: Профессиональный многоголосый, авторский
    Субтитры: Русские (forced, 3 x full), английские (full, SDH)
    Видео: AVC/H.264, 1916x812, ~10, 0 Mbps
    Аудио #1: AC3, 2 ch, 192 Kbps - Русский MVO (ОРТ)
    Аудио #2: AC3, 6 ch, 384 Kbps - Русский AVO (А. Гаврилов)
    Аудио #3: AC3, 6 ch, 384 Kbps - Русский AVO (Ю. Живов)
    Аудио #4: AC3, 2 ch, 192 Kbps - Русский AVO (А. Дольский)
    Аудио #5: AC3, 6 ch, 448 Kbps - Русский AVO (Д. Есарев )
    Аудио #6: DTS, 6 ch, 1509 Kbps - Английский (оригинал)
    Общее
    Уникальный идентификатор : 187574091174861069384166259459946191280 (0x8D1D74B5C36B0AB9BE52D7E616C419B0)
    Полное имя : D: NNM3000 миль до Грейслэнда3000.Miles.to.Graceland.2001.BDRip.1080p.mkv
    Формат : Matroska
    Версия формата : Version 2
    Размер файла : 11, 9 Гбайт
    Продолжительность : 2 ч. 4 м.
    Общий поток : 13, 6 Мбит/сек
    Дата кодирования : UTC 2019-12-28 17: 38: 01
    Программа кодирования : mkvmerge v4.0.0 (\'The Stars were mine\') сборка от Jun 6 2010 16: 18: 42
    Библиотека кодирования : libebml v1.0.0 + libmatroska v1.0.0
    Видео
    Идентификатор : 1
    Формат : AVC
    Формат/Информация : Advanced Video Codec
    Профиль формата : High@L4.1
    Настройки формата : CABAC/5 Ref Frames
    Параметр CABAC формата : Да
    Параметр RefFrames формата : 5 кадров
    Идентификатор кодека : V_MPEG4/ISO/AVC
    Продолжительность : 2 ч. 4 м.
    Битрейт : 10000 Кбит/сек
    Ширина : 1916 пикселей
    Высота : 812 пикселей
    Соотношение сторон : 2, 35: 1
    Режим частоты кадров : Постоянный
    Частота кадров : 23, 976 (24000/1001) кадра/сек
    Цветовое пространство : YUV
    Субдискретизация насыщенности : 4: 2: 0
    Битовая глубина : 8 бит
    Тип развёртки : Прогрессивная
    Бит/(Пиксели*Кадры) : 0.268
    Размер потока : 8, 47 Гбайт (71%)
    Библиотека кодирования : x264 core 146 r2538 121396c
    Настройки программы : cabac=1/ref=5/deblock=1: -2: -2/analyse=0x3: 0x133/me=umh/subme=11/psy=1/psy_rd=1.00: 0.00/mixed_ref=1/me_range=32/chroma_me=1/trellis=2/8x8dct=1/cqm=0/deadzone=21, 11/fast_pskip=0/chroma_qp_offset=-2/threads=12/lookahead_threads=2/sliced_threads=0/nr=0/decimate=0/interlaced=0/bluray_compat=0/constrained_intra=0/bframes=12/b_pyramid=2/b_adapt=2/b_bias=0/direct=3/weightb=1/open_gop=0/weightp=2/keyint=240/keyint_min=23/scenecut=40/intra_refresh=0/rc=2pass/mbtree=0/bitrate=10000/ratetol=1.0/qcomp=0.60/qpmin=0/qpmax=69/qpstep=4/cplxblur=20.0/qblur=0.5/ip_ratio=1.40/pb_ratio=1.30/aq=3: 0.80
    Язык : English
    Default : Нет
    Forced : Нет
    Аудио #1
    Идентификатор : 2
    Формат : AC-3
    Формат/Информация : Audio Coding 3
    Коммерческое название : Dolby Digital
    Идентификатор кодека : A_AC3
    Продолжительность : 2 ч. 4 м.
    Вид битрейта : Постоянный
    Битрейт : 448 Кбит/сек
    Каналы : 5 каналов
    ChannelLayout : L R C Ls Rs
    Частота : 48, 0 КГц
    Частота кадров : 31, 250 кадров/сек (1536 SPF)
    Метод сжатия : С потерями
    Размер потока : 400 Мбайт (3%)
    Заголовок : DVO R5 Premier Digital
    Язык : Russian
    ServiceKind/String : Complete Main
    Default : Нет
    Forced : Нет
    Аудио #2
    Идентификатор : 3
    Формат : AC-3
    Формат/Информация : Audio Coding 3
    Коммерческое название : Dolby Digital
    Идентификатор кодека : A_AC3
    Продолжительность : 2 ч. 4 м.
    Вид битрейта : Постоянный
    Битрейт : 192 Кбит/сек
    Каналы : 2 канала
    ChannelLayout : L R
    Частота : 48, 0 КГц
    Частота кадров : 31, 250 кадров/сек (1536 SPF)
    Метод сжатия : С потерями
    Размер потока : 171 Мбайт (1%)
    Заголовок : MVO ОРТ
    Язык : Russian
    ServiceKind/String : Complete Main
    Default : Нет
    Forced : Нет
    Аудио #3
    Идентификатор : 4
    Формат : AC-3
    Формат/Информация : Audio Coding 3
    Коммерческое название : Dolby Digital
    Идентификатор кодека : A_AC3
    Продолжительность : 2 ч. 4 м.
    Вид битрейта : Постоянный
    Битрейт : 448 Кбит/сек
    Каналы : 6 каналов
    ChannelLayout : L R C LFE Ls Rs
    Частота : 48, 0 КГц
    Частота кадров : 31, 250 кадров/сек (1536 SPF)
    Метод сжатия : С потерями
    Размер потока : 400 Мбайт (3%)
    Заголовок : AVO Гаврилов Андрей Юрьевич
    Язык : Russian
    ServiceKind/String : Complete Main
    Default : Нет
    Forced : Нет
    Аудио #4
    Идентификатор : 5
    Формат : AC-3
    Формат/Информация : Audio Coding 3
    Коммерческое название : Dolby Digital
    Идентификатор кодека : A_AC3
    Продолжительность : 2 ч. 4 м.
    Вид битрейта : Постоянный
    Битрейт : 384 Кбит/сек
    Каналы : 6 каналов
    ChannelLayout : L R C LFE Ls Rs
    Частота : 48, 0 КГц
    Частота кадров : 31, 250 кадров/сек (1536 SPF)
    Метод сжатия : С потерями
    Размер потока : 343 Мбайт (3%)
    Заголовок : AVO Живов Юрий Викторович
    Язык : Russian
    ServiceKind/String : Complete Main
    Default : Нет
    Forced : Нет
    Аудио #5
    Идентификатор : 6
    Формат : AC-3
    Формат/Информация : Audio Coding 3
    Коммерческое название : Dolby Digital
    Идентификатор кодека : A_AC3
    Продолжительность : 2 ч. 4 м.
    Вид битрейта : Постоянный
    Битрейт : 192 Кбит/сек
    Каналы : 2 канала
    ChannelLayout : L R
    Частота : 48, 0 КГц
    Частота кадров : 31, 250 кадров/сек (1536 SPF)
    Метод сжатия : С потерями
    Размер потока : 171 Мбайт (1%)
    Заголовок : AVO Дольский Андрей Игоревич
    Язык : Russian
    ServiceKind/String : Complete Main
    Default : Нет
    Forced : Нет
    Аудио #6
    Идентификатор : 7
    Формат : AC-3
    Формат/Информация : Audio Coding 3
    Коммерческое название : Dolby Digital
    Идентификатор кодека : A_AC3
    Продолжительность : 2 ч. 4 м.
    Вид битрейта : Постоянный
    Битрейт : 448 Кбит/сек
    Каналы : 6 каналов
    ChannelLayout : L R C LFE Ls Rs
    Частота : 48, 0 КГц
    Частота кадров : 31, 250 кадров/сек (1536 SPF)
    Метод сжатия : С потерями
    Размер потока : 400 Мбайт (3%)
    Заголовок : AVO Есарев Дмитрий
    Язык : Russian
    ServiceKind/String : Complete Main
    Default : Нет
    Forced : Нет
    Аудио #7
    Идентификатор : 8
    Формат : DTS
    Формат/Информация : Digital Theater Systems
    Идентификатор кодека : A_DTS
    Продолжительность : 2 ч. 4 м.
    Вид битрейта : Постоянный
    Битрейт : 1509 Кбит/сек
    Каналы : 6 каналов
    ChannelLayout : C L R Ls Rs LFE
    Частота : 48, 0 КГц
    Частота кадров : 93, 750 кадра/сек (512 SPF)
    Битовая глубина : 16 бит
    Метод сжатия : С потерями
    Размер потока : 1, 31 Гбайт (11%)
    Язык : Russian
    Default : Нет
    Forced : Нет
    Текст #1
    Идентификатор : 9
    Формат : UTF-8
    Идентификатор кодека : S_TEXT/UTF8
    Идентификатор кодека/Информация : UTF-8 Plain Text
    Заголовок : Forced для MVO ОРТ
    Язык : Russian
    Default : Нет
    Forced : Нет
    Текст #2
    Идентификатор : 10
    Формат : UTF-8
    Идентификатор кодека : S_TEXT/UTF8
    Идентификатор кодека/Информация : UTF-8 Plain Text
    Заголовок : R5
    Язык : Russian
    Default : Нет
    Forced : Нет
    Текст #3
    Идентификатор : 11
    Формат : UTF-8
    Идентификатор кодека : S_TEXT/UTF8
    Идентификатор кодека/Информация : UTF-8 Plain Text
    Язык : Russian
    Default : Нет
    Forced : Нет
    Текст #4
    Идентификатор : 12
    Формат : UTF-8
    Идентификатор кодека : S_TEXT/UTF8
    Идентификатор кодека/Информация : UTF-8 Plain Text
    Заголовок : uncensored
    Язык : Russian
    Default : Нет
    Forced : Нет
    Текст #5
    Идентификатор : 13
    Формат : UTF-8
    Идентификатор кодека : S_TEXT/UTF8
    Идентификатор кодека/Информация : UTF-8 Plain Text
    Язык : English
    Default : Нет
    Forced : Нет
    Текст #6
    Идентификатор : 14
    Формат : UTF-8
    Идентификатор кодека : S_TEXT/UTF8
    Идентификатор кодека/Информация : UTF-8 Plain Text
    Заголовок : SDH
    Язык : English
    Default : Нет
    Forced : Нет
    Меню
    00: 00: 00.000 : en: Scorpion Clash (Credits, *It\'s Gonna Kill Me*)
    00: 02: 44.247 : en: Cheap Date
    00: 06: 22.089 : en: Ready to Play?
    00: 09: 55.761 : en: The King\'s Never Down
    00: 13: 14.126 : en: Money Hunt
    00: 16: 02.502 : en: Elvises Galore (*Trouble*)
    00: 19: 44.307 : en: The Robbery
    00: 23: 52.188 : en: The Shootout (*Come In Hard*)
    00: 29: 06.994 : en: Left the Building
    00: 33: 05.983 : en: Close Shave
    00: 35: 10.607 : en: New Rules
    00: 40: 31.303 : en: Body Disposal
    00: 42: 21.246 : en: $100, 000 of Silence
    00: 46: 51.307 : en: On Their Way
    00: 50: 29.317 : en: About Murph (*Loaded Gun/In 2 Deep*)
    00: 55: 54.851 : en: Nasty Habits
    00: 57: 06.464 : en: Passenger Swap (*Bad to the Bone*)
    00: 59: 40.993 : en: Getaway With Candles (*Every Little Thing*)
    01: 04: 07.885 : en: Quick Draw
    01: 07: 22.579 : en: Keeping Things Honest
    01: 11: 58.438 : en: We\'re in Business
    01: 16: 08.146 : en: Murph\'s Handiwork
    01: 19: 00.818 : en: Two Stolen Cars
    01: 22: 21.603 : en: Behind Bars in Boise
    01: 26: 21.008 : en: Get Out of Jail Free
    01: 28: 22.880 : en: Lies and Goodbyes
    01: 32: 05.602 : en: Instant Wombat
    01: 35: 16.001 : en: Road Rage (*Angel Dust*)
    01: 41: 07.811 : en: In Murph\'s Hands
    01: 44: 54.329 : en: Tough Guys Gotta Eat
    01: 47: 27.815 : en: Faceoff
    01: 50: 53.563 : en: Bullets Taken
    01: 54: 03.127 : en: Recognize Me Now? (*My Way*)
    01: 58: 42.197 : en: Three on a Boat (*Follow Me*)
    02: 01: 08.302 : en: End Credits (*Such a Night*)

    Скриншоты для ознакомления



    Все одноименные релизы в Клубе Время раздачи: 24/7 (до появления первых 3-5 скачавших)

    Онлайн видео 3000 миль до Грейслэнда



    3000 миль до Грейслэнда/3000 Miles to Graceland (2001) BDRip [H.264/1080p]
    Рейтинг →
     (голосов: 1, оценка 4/5, голосовать можно 1 раз )

    Другие торренты по теме:

  • Д. Лухманов | 20000 миль под парусами (1936) [FB2] скачать через торрент бесплатно
  • Verizon IndyCar. 500 миль Индианаполиса (2016) HDTVRip [H.264 / 720p] [hand made 50fps]
  • Хэл Кернер, Адам Чейз | Руководство ультрамарафонца. От 50 километров до 100 миль (2016) [EPUB]
  • 600 миль / 600 Miles (2015) BDRip [H.264 / 1080p] [EN / EN Sub]
  • 600 миль / 600 Millas (2015) HDRip [AVO]
  • 600 Миль / 600 Milas (2015) BDRip [H.264 / 720p] [AVO]
  • 600 миль / 600 Millas / 600 Miles (2015) BDRip [AVO]
  • 600 миль / 600 Millas / 600 Miles (2015) BDRemux [H.264 / 1080p] [AVO]


    • Комментарии (0):

      Информация

      Информация

        Посетители, находящиеся в группе Гости, не могут оставлять комментарии в данной новости.

        ↓ Меню




        ↓ Опрос

        Вы добавили сайт в закладки?
        Да
        Нет


        Популярное