.
Авторизация | Регистрация
bitok.xyz
» » Манхэттенский проект (Игра со смертью) / The Manhattan Project (1986) BDRip [H.264 / 720p] [PR] торрент скачать бесплатно


    Манхэттенский проект (Игра со смертью) / The Manhattan Project (1986) BDRip [H.264 / 720p] [PR] торрент скачать бесплатно

    Дата: 30-12-2019, 05:00 | .torrent скачали: 0

    Манхэттенский проект (Игра со смертью) / The Manhattan Project (1986) BDRip [H.264 / 720p] [PR]Производство: США, Gladden Entertainment
    Жанр: фантастика, триллер
    Режиссер: Маршалл Брикмен

    Актеры
    Джон Литгоу, Ричард Консил, Роберт Шенккан, Пол Остин, Адриан Спаркс, Курт Демпстер, Брэн Феррен, Кристофер Коллет, Джилл Айкенберри, Синтия Никсон

    Описание

    Вундеркинд Пол Стивенс узнаёт, что новый приятель его матери работает в области разработок ядерного вооружения. Проникнув к нему в лабораторию, Пол крадёт некоторое количество плутония для личных нужд и вскоре создаёт собственную ядерную бомбу.

    Рейтинг MPAA: PG-13 (детям до 13 лет просмотр нежелателен)
    Продолжительность: 01: 58: 05
    Качество видео: BDRip
    Перевод: Многоголосый профессиональный, Авторский (одноголосый закадровый)
    Субтитры: английские
    Видео : AVC/H.264, 1280x720, 7680 kbps, 23.976 fps
    Аудио #1: AC-3, 2 ch, 192 kbps - Русский (DVO, SDI Media)
    Аудио #2: AC-3, 2 ch, 192 kbps - Русский (AVO, Г. Либергал)
    Аудио #3: DTS-HD MA, 2 ch, 1557 kbps - АнглийскийОбщее
    Полное имя : G: mkv processingThe Manhattan Project.1986.BDRip.720p.mkv
    Формат : Matroska
    Версия формата : Version 4
    Размер файла : 7, 94 Гбайт
    Продолжительность : 1 ч. 58 м.
    Режим общего битрейта : Переменный
    Общий поток : 9623 Кбит/сек
    Дата кодирования : UTC 2019-12-28 19: 36: 38
    Программа кодирования : mkvmerge v41.0.0 (\'Smarra\') 64-bit
    Библиотека кодирования : libebml v1.3.9 + libmatroska v1.5.2
    Обложка : Yes
    Attachments : cover.jpg
    Видео
    Идентификатор : 1
    Формат : AVC
    Формат/Информация : Advanced Video Codec
    Профиль формата : High@L4.1
    Настройки формата : CABAC/3 Ref Frames
    Параметр CABAC формата : Да
    Параметр RefFrames формата : 3 кадра
    Идентификатор кодека : V_MPEG4/ISO/AVC
    Продолжительность : 1 ч. 58 м.
    Вид битрейта : Переменный
    Битрейт : 7680 Кбит/сек
    Максимальный битрейт : 40, 0 Мбит/сек
    Ширина : 1280 пикселей
    Высота : 720 пикселей
    Соотношение сторон : 16: 9
    Режим частоты кадров : Постоянный
    Частота кадров : 23, 976 (24000/1001) кадра/сек
    Цветовое пространство : YUV
    Субдискретизация насыщенности : 4: 2: 0
    Битовая глубина : 8 бит
    Тип развёртки : Прогрессивная
    Бит/(Пиксели*Кадры) : 0.348
    Размер потока : 6, 33 Гбайт (80%)
    Библиотека кодирования : x264 core 157 r2935 545de2f
    Настройки программы : cabac=1/ref=3/deblock=1: -1: -1/analyse=0x3: 0x113/me=hex/subme=7/psy=1/psy_rd=1.00: 0.15/mixed_ref=1/me_range=16/chroma_me=1/trellis=1/8x8dct=1/cqm=0/deadzone=21, 11/fast_pskip=1/chroma_qp_offset=-3/threads=6/lookahead_threads=1/sliced_threads=0/slices=4/nr=0/decimate=1/interlaced=0/bluray_compat=1/constrained_intra=0/bframes=3/b_pyramid=1/b_adapt=1/b_bias=0/direct=1/weightb=1/open_gop=1/weightp=1/keyint=24/keyint_min=1/scenecut=40/intra_refresh=0/rc_lookahead=24/rc=2pass/mbtree=1/bitrate=7680/ratetol=1.0/qcomp=0.60/qpmin=0/qpmax=69/qpstep=4/cplxblur=20.0/qblur=0.5/vbv_maxrate=40000/vbv_bufsize=30000/nal_hrd=vbr/filler=0/ip_ratio=1.40/aq=1: 1.00
    Default : Да
    Forced : Нет
    Цветовой диапазон : Limited
    Основные цвета : BT.709
    Характеристики трансфера : BT.709
    Коэффициенты матрицы : BT.709
    Аудио #1
    Идентификатор : 2
    Формат : AC-3
    Формат/Информация : Audio Coding 3
    Коммерческое название : Dolby Digital
    Идентификатор кодека : A_AC3
    Продолжительность : 1 ч. 57 м.
    Вид битрейта : Постоянный
    Битрейт : 192 Кбит/сек
    Каналы : 2 канала
    ChannelLayout : L R
    Частота : 48, 0 КГц
    Частота кадров : 31, 250 кадров/сек (1536 SPF)
    Метод сжатия : С потерями
    Размер потока : 162 Мбайт (2%)
    Заголовок : Профессиональный (многоголосый закадровый) SDI Media
    Язык : Russian
    ServiceKind/String : Complete Main
    Default : Да
    Forced : Нет
    Аудио #2
    Идентификатор : 3
    Формат : AC-3
    Формат/Информация : Audio Coding 3
    Коммерческое название : Dolby Digital
    Идентификатор кодека : A_AC3
    Продолжительность : 1 ч. 58 м.
    Вид битрейта : Постоянный
    Битрейт : 192 Кбит/сек
    Каналы : 2 канала
    ChannelLayout : L R
    Частота : 48, 0 КГц
    Частота кадров : 31, 250 кадров/сек (1536 SPF)
    Метод сжатия : С потерями
    Размер потока : 162 Мбайт (2%)
    Заголовок : Одноголосый закадровый (Либергал)
    Язык : Russian
    ServiceKind/String : Complete Main
    Default : Нет
    Forced : Нет
    Аудио #3
    Идентификатор : 4
    Формат : DTS XLL
    Формат/Информация : Digital Theater Systems
    Коммерческое название : DTS-HD Master Audio
    Идентификатор кодека : A_DTS
    Продолжительность : 1 ч. 58 м.
    Вид битрейта : Переменный
    Битрейт : 1559 Кбит/сек
    Каналы : 2 канала
    ChannelLayout : L R
    Частота : 48, 0 КГц
    Частота кадров : 93, 750 кадра/сек (512 SPF)
    Битовая глубина : 16 бит
    Метод сжатия : Без потерь
    Размер потока : 1, 29 Гбайт (16%)
    Заголовок : Original
    Язык : English
    Default : Нет
    Forced : Нет
    Текст
    Идентификатор : 5
    Формат : UTF-8
    Идентификатор кодека : S_TEXT/UTF8
    Идентификатор кодека/Информация : UTF-8 Plain Text
    Продолжительность : 1 ч. 53 м.
    Битрейт : 50 бит/сек
    ElementCount : 1122
    Размер потока : 41, 8 Кбайт (0%)
    Язык : English
    Default : Нет
    Forced : Нет
    Меню
    00: 00: 00.000 : : 00: 00: 00.000
    00: 09: 07.933 : : 00: 09: 07.933
    00: 22: 24.521 : : 00: 22: 24.521
    00: 33: 04.493 : : 00: 33: 04.493
    00: 52: 26.654 : : 00: 52: 26.654
    01: 07: 57.126 : : 01: 07: 57.126
    01: 23: 08.494 : : 01: 23: 08.494
    01: 37: 10.669 : : 01: 37: 10.669

    Скриншоты для ознакомления


    Все одноименные релизы в Клубе
    Время раздачи: с 21: 00 до 5: 00 МСК (до появления первых 3-5 скачавших)

    Онлайн видео Манхэттенский проект (Игра со смертью)



    Манхэттенский проект (Игра со смертью)/The Manhattan Project (1986) BDRip [H.264/720p] [PR]
    Рейтинг →
     (голосов: 1, оценка 4/5, голосовать можно 1 раз )

    Другие торренты по теме:

  • Манхэттенский проект / The Manhattan Project (1986) BDRemux [H.264 / 1080p]
  • Манхэттенский проект / The Manhattan Project (1986) BDRip [H.264 / 1080p-LQ]


    • Комментарии (0):

      Информация

      Информация

        Посетители, находящиеся в группе Гости, не могут оставлять комментарии в данной новости.

        ↓ Меню




        ↓ Опрос

        Вы добавили сайт в закладки?
        Да
        Нет


        Популярное