.
Авторизация | Регистрация
bitok.xyz
» » Жаркие летние ночи / Hot Summer Nights (2017) BDRemux [H.264 / 1080p] торрент скачать бесплатно


    Жаркие летние ночи / Hot Summer Nights (2017) BDRemux [H.264 / 1080p] торрент скачать бесплатно

    Дата: 30-12-2019, 05:00 | .torrent скачали: 0

    Жаркие летние ночи / Hot Summer Nights (2017) BDRemux [H.264 / 1080p]Производство: США/Imperative Entertainment
    Жанр: Драма, мелодрама, комедия, криминал
    Режиссер: Элайджа Байнум

    Актеры
    Тимоти Шаламе, Майка Монро, Алекс Роу, Эмори Коэн, Томас Джейн, Майя Митчелл, Уильям Фихтнер, Джанин Серраллес, Риз Эннис, Джек Кеси

    Описание

    Это знойное лето Дэниэл запомнит надолго, ведь он умудрился одновременно связаться с наркоторговцами и влюбиться в лучшую девушку американского полуострова Кейп-Код. Все бы ничего, но красавица - сестра главного гангстера на этом курорте, и лучше бы ему об этом никогда не узнать...

    Возраст: 18+ (зрителям, достигшим 18 лет. запрещено для детей)
    Рейтинг MPAA: R (лицам до 17 лет обязательно присутствие взрослого)
    Дата мировой премьеры: 14 марта 2017
    Дата российской премьеры: 2 августа 2018, A-One Films
    Продолжительность: 01: 47: 50
    Качество видео: BDRemux
    Перевод: Многоголосый профессиональный
    Субтитры: Русские, английские
    Видео: AVC/H.264, 1920х1080, ~23.0 Mbps
    Аудио #1: AC3, 2 ch, 192 Kbps | Русский (MVO, iTunes - студия Мельница)
    Аудио #2: AC3, 2 ch, 192 Kbps | Русский (MVO, HDRezka Studio)
    Аудио #3: DTS-HD MA, 6 ch, 2594 Kbps | Английский
    General
    Unique ID : 152939845734850359519898374910026800940 (0x730F2492697F13D05B658AF11B615F2C)
    Complete name : F: Новая папка (16)Hot.Summer.Nights.2017.BDREMUX 1080p.mkv
    Format : Matroska
    Format version : Version 4
    File size : 19.6 GiB
    Duration : 1 h 47 min
    Overall bit rate mode : Variable
    Overall bit rate : 26.0 Mb/s
    Movie name : Hot.Summer.Nights.2017.BDREMUX 1080p
    Encoded date : UTC 2019-12-25 14: 29: 53
    Writing application : mkvmerge v29.0.0 (\'Like It Or Not\') 64-bit
    Writing library : libebml v1.3.6 + libmatroska v1.4.9
    Video
    ID : 1
    Format : AVC
    Format/Info : Advanced Video Codec
    Format profile : High@L4.1
    Format settings : CABAC/3 Ref Frames
    Format settings, CABAC : Yes
    Format settings, RefFrames : 3 frames
    Codec ID : V_MPEG4/ISO/AVC
    Duration : 1 h 47 min
    Bit rate mode : Variable
    Bit rate : 23.0 Mb/s
    Maximum bit rate : 40.0 Mb/s
    Width : 1 920 pixels
    Height : 1 080 pixels
    Display aspect ratio : 16: 9
    Frame rate mode : Constant
    Frame rate : 23.976 (24000/1001) FPS
    Color space : YUV
    Chroma subsampling : 4: 2: 0
    Bit depth : 8 bits
    Scan type : Progressive
    Bits/(Pixel*Frame) : 0.463
    Stream size : 17.3 GiB (89%)
    Title : Hot.Summer.Nights.2017.BDREMUX 1080p
    Writing library : x264 core 148 r2638 7599210
    Encoding settings : cabac=1/ref=4/deblock=1: -1: -1/analyse=0x3: 0x133/me=umh/subme=10/psy=1/psy_rd=1.00: 0.15/mixed_ref=1/me_range=24/chroma_me=1/trellis=2/8x8dct=1/cqm=0/deadzone=21, 11/fast_pskip=1/chroma_qp_offset=-3/threads=18/lookahead_threads=1/sliced_threads=0/slices=4/nr=0/decimate=1/interlaced=0/bluray_compat=1/constrained_intra=0/bframes=3/b_pyramid=1/b_adapt=2/b_bias=0/direct=3/weightb=1/open_gop=1/weightp=1/keyint=23/keyint_min=1/scenecut=40/intra_refresh=0/rc_lookahead=23/rc=2pass/mbtree=1/bitrate=23000/ratetol=1.0/qcomp=0.60/qpmin=0/qpmax=69/qpstep=4/cplxblur=20.0/qblur=0.5/vbv_maxrate=40000/vbv_bufsize=30000/nal_hrd=vbr/filler=0/ip_ratio=1.40/aq=1: 1.00
    Default : Yes
    Forced : No
    Color range : Limited
    Color primaries : BT.709
    Transfer characteristics : BT.709
    Matrix coefficients : BT.709
    Audio #1
    ID : 2
    Format : AC-3
    Format/Info : Audio Coding 3
    Commercial name : Dolby Digital
    Codec ID : A_AC3
    Duration : 1 h 47 min
    Bit rate mode : Constant
    Bit rate : 192 kb/s
    Channel(s) : 2 channels
    Channel layout : L R
    Sampling rate : 48.0 kHz
    Frame rate : 31.250 FPS (1536 SPF)
    Bit depth : 16 bits
    Compression mode : Lossy
    Stream size : 148 MiB (1%)
    Title : iTunes - студия Мельница
    Language : Russian
    Service kind : Complete Main
    Default : Yes
    Forced : Yes
    Audio #2
    ID : 3
    Format : AC-3
    Format/Info : Audio Coding 3
    Commercial name : Dolby Digital
    Codec ID : A_AC3
    Duration : 1 h 47 min
    Bit rate mode : Constant
    Bit rate : 192 kb/s
    Channel(s) : 2 channels
    Channel layout : L R
    Sampling rate : 48.0 kHz
    Frame rate : 31.250 FPS (1536 SPF)
    Bit depth : 16 bits
    Compression mode : Lossy
    Stream size : 148 MiB (1%)
    Title : HDRezka Studio
    Language : Russian
    Service kind : Complete Main
    Default : No
    Forced : No
    Audio #3
    ID : 4
    Format : DTS XLL
    Format/Info : Digital Theater Systems
    Commercial name : DTS-HD Master Audio
    Codec ID : A_DTS
    Duration : 1 h 47 min
    Bit rate mode : Variable
    Bit rate : 2 594 kb/s
    Channel(s) : 6 channels
    Channel layout : C L R Ls Rs LFE
    Sampling rate : 48.0 kHz
    Frame rate : 93.750 FPS (512 SPF)
    Bit depth : 16 bits
    Compression mode : Lossless
    Stream size : 1.95 GiB (10%)
    Language : English
    Default : No
    Forced : No
    Text #1
    ID : 5
    Format : UTF-8
    Codec ID : S_TEXT/UTF8
    Codec ID/Info : UTF-8 Plain Text
    Duration : 1 h 42 min
    Bit rate : 76 b/s
    Count of elements : 1240
    Stream size : 57.5 KiB (0%)
    Title : FOCS
    Language : Russian
    Default : No
    Forced : No
    Text #2
    ID : 6
    Format : UTF-8
    Codec ID : S_TEXT/UTF8
    Codec ID/Info : UTF-8 Plain Text
    Duration : 1 h 42 min
    Bit rate : 79 b/s
    Count of elements : 1226
    Stream size : 59.9 KiB (0%)
    Title : -amely-
    Language : Russian
    Default : No
    Forced : No
    Text #3
    ID : 7
    Format : UTF-8
    Codec ID : S_TEXT/UTF8
    Codec ID/Info : UTF-8 Plain Text
    Duration : 1 h 42 min
    Bit rate : 52 b/s
    Count of elements : 1436
    Stream size : 39.5 KiB (0%)
    Title : SDH
    Language : English
    Default : No
    Forced : No
    Menu
    00: 00: 00.000 : en: Studio Logo
    00: 00: 25.000 : en: Scene 2
    00: 06: 34.000 : en: Scene 3
    00: 14: 41.000 : en: Title Sequence
    00: 14: 53.000 : en: Scene 5
    00: 23: 41.000 : en: Scene 6
    00: 30: 34.000 : en: Scene 7
    00: 35: 50.000 : en: Scene 8
    00: 44: 57.000 : en: Scene 9
    00: 47: 56.000 : en: Scene 10
    00: 50: 54.000 : en: Scene 11
    00: 58: 59.000 : en: Scene 12
    01: 03: 25.000 : en: Scene 13
    01: 11: 37.000 : en: Scene 14
    01: 17: 36.000 : en: Scene 15
    01: 23: 55.000 : en: Scene 16
    01: 29: 55.000 : en: Scene 17
    01: 39: 50.000 : en: Scene 18
    01: 43: 13.000 : en: End Credits

    Скриншоты для ознакомления




    Все одноименные релизы в Клубе
    Время раздачи: до появления первых 3-5 скачавших (до появления первых 3-5 скачавших)

    Онлайн видео Жаркие летние ночи



    Жаркие летние ночи/Hot Summer Nights (2017) BDRemux [H.264/1080p]
    Рейтинг →
     (голосов: 1, оценка 5/5, голосовать можно 1 раз )

    Другие торренты по теме:

  • Жаркие летние ночи / Hot Summer Nights (2017) WEB-DLRip [H.264 / 1080p-LQ] [MVO] [AD]
  • Жаркие летние ночи / Hot Summer Nights (2017) WEB-DLRip [MVO] [AD]
  • Жаркие летние ночи / Hot Summer Nights (2017) WEB-DLRip [H.264] [MVO]
  • Жаркие летние ночи / Hot Summer Nights (2017) WEB-DL [H.264 / 1080p-LQ]
  • Жаркие летние ночи / Hot Summer Nights Goats (2017) WEB-DL [1080p] ATV [MVO]
  • VA - Жаркие танцы. Летние хиты (2016) [MP3|256 Kbps] <Pop>


    • Комментарии (0):

      Информация

      Информация

        Посетители, находящиеся в группе Гости, не могут оставлять комментарии в данной новости.

        ↓ Меню




        ↓ Опрос

        Вы добавили сайт в закладки?
        Да
        Нет


        Популярное