.
Авторизация | Регистрация
bitok.xyz
» » Три дня на побег / The Next Three Days (2010) BDRip [H.264 / 1080p] [PR] торрент скачать бесплатно


    Три дня на побег / The Next Three Days (2010) BDRip [H.264 / 1080p] [PR] торрент скачать бесплатно

    Дата: 30-12-2019, 05:00 | .torrent скачали: 1

    Три дня на побег / The Next Three Days (2010) BDRip [H.264 / 1080p] [PR]Русское название: Три дня на побег
    Оригинальное название: The Next Three Days
    Год выпуска: 2010
    Жанр: Триллер, Драма, Мелодрама, Криминал
    Режиссер: Пол Хаггис

    Актеры
    Рассел Кроу, Элизабет Бэнкс, Лиам Нисон, Оливия Уайлд, Майкл Бьюи, Моран Атиас, Реми Нозик, Тоби Грин, Тайлер Грин, Джейсон Бех, Аиша Хиндс, Ти Кигэн Симпкинс

    Описание

    Жизнь Джона казалась идеальной, пока его красавицу жену не арестовали по подозрению в убийстве. Пока Лара сидит в тюрьме, Джон один воспитывает сына и пытается всеми способами доказать ее невиновность. Но, когда законные способы освободить любимую исчерпаны, единственное, что ему остается — разработать изощренный план побега. Джон готов рискнуть всем ради нее… Но что если она действительно виновна?

    Возраст: 16+ (зрителям, достигшим 16 лет)
    Рейтинг MPAA: PG-13 (детям до 13 лет просмотр нежелателен)
    Продолжительность: 02: 13: 08
    Качество видео: BDRip
    Перевод: Дублированный (Лицензия)
    Язык субтитров: Русский (R5), Русский (voronine), Украинский, Английский
    Видеокодек: MPEG-4 AVC/H.264
    Битрейт видео: ~9069 kbps
    Размер кадра: 1920x816
    Аудио 1: AC3, 5.1, 384 kbps (Русский)
    Аудио 2: AC3, 5.1, 384 kbps (Украинский, дубляж)
    Аудио 3: DTS, 5.1, 1510 kbps (Английский)
    Общее
    Уникальный идентификатор : 173703744234757456051229410224321816020 (0x82AE1FCEAD4D1F38AE31170A3B7765D4)
    Полное имя : nnm-club.me_The.Next.Three.Days.2010.1080p.BDRip.mkv
    Формат : Matroska
    Размер файла : 10, 6 Гбайт
    Продолжительность : 2 ч. 13 м.
    Общий поток : 11, 3 Мбит/сек
    Название фильма : NoNaMe
    Дата кодирования : UTC 2011-03-16 04: 32: 21
    Программа кодирования : mkvmerge v2.8.0 (\'The Tree\') built on May 9 2009 18: 02: 06
    Библиотека кодирования : libebml v0.7.7 + libmatroska v0.8.1
    Видео
    Идентификатор : 1
    Формат : AVC
    Формат/Информация : Advanced Video Codec
    Профиль формата : High@L4.1
    Параметр CABAC формата : Да
    Параметр ReFrames формата : 5 кадры
    Идентификатор кодека : V_MPEG4/ISO/AVC
    Продолжительность : 2 ч. 13 м.
    Битрейт : 9069 Кбит/сек
    Ширина : 1920 пикс.
    Высота : 816 пикс.
    Соотношение сторон : 2, 35: 1
    Частота кадров : 23, 976 кадр/сек
    Цветовое пространство : YUV
    Подвыборка цветности : 4: 2: 0
    Битовая глубина : 8 бит
    Тип развёртки : Прогрессивная
    Бит/(Пиксели*Кадры) : 0.241
    Размер потока : 8, 22 Гбайт (78%)
    Библиотека кодирования : x264 core 114 r1913 5fd3dce
    Настройки программы : cabac=1/ref=5/deblock=1: 0: 0/analyse=0x3: 0x133/me=umh/subme=8/psy=1/psy_rd=1.00: 0.00/mixed_ref=1/me_range=16/chroma_me=1/trellis=1/8x8dct=1/cqm=0/deadzone=21, 11/fast_pskip=0/chroma_qp_offset=-2/threads=12/sliced_threads=0/nr=0/decimate=0/interlaced=0/constrained_intra=0/bframes=3/b_pyramid=2/b_adapt=1/b_bias=0/direct=1/weightb=1/open_gop=1/weightp=2/keyint=250/keyint_min=23/scenecut=40/intra_refresh=0/rc_lookahead=40/rc=2pass/mbtree=1/bitrate=9069/ratetol=1.0/qcomp=0.60/qpmin=0/qpmax=51/qpstep=4/cplxblur=20.0/qblur=0.5/ip_ratio=1.40/aq=1: 1.00
    Язык : English
    Аудио #1
    Идентификатор : 2
    Формат : AC-3
    Формат/Информация : Audio Coding 3
    Расширение режима : CM (complete main)
    Идентификатор кодека : A_AC3
    Продолжительность : 2 ч. 13 м.
    Вид битрейта : Постоянный
    Битрейт : 384 Кбит/сек
    Канал(ы) : 6 канала(ов)
    Расположение каналов : Front: L C R, Side: L R, LFE
    Частота : 48, 0 КГц
    Битовая глубина : 16 бит
    Метод сжатия : С потерями
    Размер потока : 366 Мбайт (3%)
    Заголовок : Dub R5
    Язык : Russian
    Аудио #2
    Идентификатор : 3
    Формат : AC-3
    Формат/Информация : Audio Coding 3
    Расширение режима : CM (complete main)
    Идентификатор кодека : A_AC3
    Продолжительность : 2 ч. 13 м.
    Вид битрейта : Постоянный
    Битрейт : 384 Кбит/сек
    Канал(ы) : 6 канала(ов)
    Расположение каналов : Front: L C R, Side: L R, LFE
    Частота : 48, 0 КГц
    Битовая глубина : 16 бит
    Метод сжатия : С потерями
    Размер потока : 366 Мбайт (3%)
    Заголовок : Dub R5
    Язык : Ukrainian
    Аудио #3
    Идентификатор : 4
    Формат : DTS
    Формат/Информация : Digital Theater Systems
    Идентификатор кодека : A_DTS
    Продолжительность : 2 ч. 13 м.
    Вид битрейта : Постоянный
    Битрейт : 1510 Кбит/сек
    Канал(ы) : 6 канала(ов)
    Расположение каналов : Front: L C R, Side: L R, LFE
    Частота : 48, 0 КГц
    Битовая глубина : 24 бит
    Метод сжатия : С потерями
    Размер потока : 1, 40 Гбайт (13%)
    Заголовок : Original
    Язык : English
    Текст #1
    Идентификатор : 5
    Формат : UTF-8
    Идентификатор кодека : S_TEXT/UTF8
    Идентификатор кодека/Информация : UTF-8 Plain Text
    Заголовок : R5
    Язык : Russian
    Текст #2
    Идентификатор : 6
    Формат : UTF-8
    Идентификатор кодека : S_TEXT/UTF8
    Идентификатор кодека/Информация : UTF-8 Plain Text
    Заголовок : voronine
    Язык : Russian
    Текст #3
    Идентификатор : 7
    Формат : UTF-8
    Идентификатор кодека : S_TEXT/UTF8
    Идентификатор кодека/Информация : UTF-8 Plain Text
    Заголовок : R5
    Язык : Ukrainian
    Текст #4
    Идентификатор : 8
    Формат : UTF-8
    Идентификатор кодека : S_TEXT/UTF8
    Идентификатор кодека/Информация : UTF-8 Plain Text
    Язык : English
    Скриншоты для ознакомления

    Все одноименные релизы в Клубе
    Время раздачи: 24/7 (до появления первых 3-5 скачавших)

    Онлайн видео Три дня на побег



    Три дня на побег/The Next Three Days (2010) BDRip [H.264/1080p] [PR]
    Рейтинг →
     (голосов: 1, оценка 4/5, голосовать можно 1 раз )

    Другие торренты по теме:

  • Три дня на побег / The Next Three Days (2010) BDRip [H.264] скачать через торрент бесплатно
  • Три дня на побег / The Next Three Days (2010) BDRemux [H.264 / 1080p]
  • Три дня на побег / The Next Three Days (2010) BDRip [H.264]
  • Три дня на побег / The Next Three Days (2010) BDRip [H.264 / 720p]


    • Комментарии (0):

      Информация

      Информация

        Посетители, находящиеся в группе Гости, не могут оставлять комментарии в данной новости.

        ↓ Меню




        ↓ Опрос

        Вы добавили сайт в закладки?
        Да
        Нет


        Популярное