.
Авторизация | Регистрация
bitok.xyz
» » Человек-паук 3: Враг в отражении / Spider-Man 3 (2007) BDRip [H.265 / 1080p] [10-bit] торрент скачать бесплатно


    Человек-паук 3: Враг в отражении / Spider-Man 3 (2007) BDRip [H.265 / 1080p] [10-bit] торрент скачать бесплатно

    Дата: 30-12-2019, 05:00 | .torrent скачали: 0

    Человек-паук 3: Враг в отражении / Spider-Man 3 (2007) BDRip [H.265 / 1080p] [10-bit]Производство: США/Columbia Pictures, Marvel Studios, Laura Ziskin Productions
    Жанр: фантастика, боевик, приключения
    Режиссер: Сэм Рэйми

    Актеры
    Тоби Магуайр, Кирстен Данст, Джеймс Франко, Томас Хейден Чёрч, Тофер Грейс, Брайс Даллас Ховард, Розмари Харрис, Дж.К. Симмонс, Джеймс Кромуэлл, Илья Баскин

    Описание
    Прошло пять лет с тех пор, как Питер осознал, что с Великой силой приходит Великая ответственность!, и три года с тех пор, как он отказался быть борцом за справедливость. Но сейчас кажется, Питер прекрасно научился жить несколькими жизнями. Он хорошо учится, Нью-Йорк признал его героем, отношения с Мэри Джейн прочные. Питер даже намеревается сделать ей предложение!

    Возраст: 12+ (зрителям, достигшим 12 лет)
    Рейтинг MPAA: PG-13 (детям до 13 лет просмотр нежелателен)
    Релиз от: M@kSIMus (HEVC-CLUB)
    Продолжительность: 02: 19: 10
    Качество видео: BDRip
    Перевод: Дублированный
    Субтитры: Русские (форсированные, полные), английские
    Видео: HEVC/H.265, 1920x804, ~12, 7 Mbps
    Аудио 1: AC3, 6 ch, 640 Kbps - Русский, дублированный
    Аудио 2: AC3, 6 ch, 640 Kbps - Английский
    Общее
    Уникальный идентификатор : 269624290430078375676227560993375105191 (0xCAD7BFDD1787AB1DEA6BDB04ED4BB0A7)
    Полное имя : R: 3.Spider-Man 3 (2007) UHD BDRip 1080p HEVC 10 bit.mkv
    Формат : Matroska
    Версия формата : Version 4/Version 2
    Размер файла : 13, 6 Гбайт
    Продолжительность : 2 ч. 19 м.
    Общий поток : 13, 9 Мбит/сек
    Название фильма : Spider-Man 3 (2007) Encoded_by_M@kSIMus
    Дата кодирования : UTC 2019-12-26 07: 06: 46
    Программа кодирования : mkvmerge v40.0.0 (\'Old Town Road + Pony\') 64-bit
    Библиотека кодирования : libebml v1.3.9 + libmatroska v1.5.2
    Обложка : Yes
    Attachments : cover3.jpg
    Видео
    Идентификатор : 1
    Формат : HEVC
    Формат/Информация : High Efficiency Video Coding
    Профиль формата : Main10@L4.1@High
    Идентификатор кодека : V_MPEGH/ISO/HEVC
    Продолжительность : 2 ч. 19 м.
    Битрейт : 12, 7 Мбит/сек
    Ширина : 1920 пикселей
    Высота : 804 пикселя
    Соотношение сторон : 2, 40: 1
    Режим частоты кадров : Постоянный
    Частота кадров : 23, 976 (24000/1001) кадра/сек
    Цветовое пространство : YUV
    Субдискретизация насыщенности : 4: 2: 0
    Битовая глубина : 10 бит
    Бит/(Пиксели*Кадры) : 0.342
    Размер потока : 12, 3 Гбайт (91%)
    Библиотека кодирования : x265 3.2+5-354901970679: Windowsclang 8.0.164 bit 10bit
    Настройки программы : cpuid=1049583/frame-threads=5/numa-pools=4/wpp/no-pmode/no-pme/no-psnr/no-ssim/log-level=3/input-csp=1/input-res=1920x804/interlace=0/total-frames=0/level-idc=41/high-tier=1/uhd-bd=0/ref=5/allow-non-conformance/no-repeat-t_heads/annexb/no-aud/no-hrd/info/hash=0/no-temporal-layers/open-gop/min-keyint=24/keyint=240/gop-lookahead=0/bframes=12/b-adapt=2/b-pyramid/bframe-bias=0/rc-lookahead=40/lookahead-slices=5/scenecut=40/radl=0/no-splice/no-intra-refresh/ctu=32/min-cu-size=8/rect/no-amp/max-tu-size=32/tu-inter-depth=4/tu-intra-depth=4/limit-tu=1/rdoq-level=1/dynamic-rd=0.00/no-ssim-rd/signhide/no-tskip/nr-intra=0/nr-inter=0/no-constrained-intra/no-strong-intra-smoothing/max-merge=5/limit-refs=1/no-limit-modes/me=3/subme=7/merange=57/temporal-mvp/no-frame-dup/no-hme/weightp/no-weightb/no-analyze-src-pics/deblock=-3: -3/no-sao/no-sao-non-deblock/rd=4/selective-sao=0/early-skip/no-rskip/no-fast-intra/no-tskip-fast/no-cu-lossless/b-intra/no-splitrd-skip/rdpenalty=0/psy-rd=2.00/psy-rdoq=1.00/no-rd-refine/no-lossless/cbqpoffs=0/crqpoffs=0/rc=crf/crf=20.0/qcomp=0.60/qpstep=4/stats-write=0/stats-read=0/vbv-maxrate=50000/vbv-bufsize=50000/vbv-init=0.9/crf-max=0.0/crf-min=0.0/ipratio=1.40/pbratio=1.30/aq-mode=3/aq-strength=1.00/no-cutree/zone-count=0/no-strict-cbr/qg-size=32/no-rc-grain/qpmax=69/qpmin=0/no-const-vbv/sar=1/overscan=0/videoformat=5/range=0/colorprim=1/transfer=1/colormatrix=1/chromaloc=0/display-window=0/cll=0, 0/min-luma=0/max-luma=1023/log2-max-poc-lsb=8/vui-timing-info/vui-hrd-info/slices=1/no-opt-qp-pps/no-opt-ref-list-length-pps/no-multi-pass-opt-rps/scenecut-bias=0.05/no-opt-cu-delta-qp/no-aq-motion/no-hdr/no-hdr-opt/no-dhdr10-opt/no-idr-recovery-sei/analysis-reuse-level=5/scale-factor=0/refine-intra=0/refine-inter=0/refine-mv=1/refine-ctu-distortion=0/no-limit-sao/ctu-info=0/no-lowpass-dct/refine-analysis-type=0/copy-pic=1/max-ausize-factor=1.0/no-dynamic-refine/no-single-sei/no-hevc-aq/no-svt/no-field/qp-adaptation-range=1.00
    Язык : English
    Default : Да
    Forced : Нет
    Цветовой диапазон : Limited
    Основные цвета : BT.709
    Характеристики трансфера : BT.709
    Коэффициенты матрицы : BT.709
    Аудио #1
    Идентификатор : 2
    Формат : AC-3
    Формат/Информация : Audio Coding 3
    Идентификатор кодека : A_AC3
    Продолжительность : 2 ч. 19 м.
    Вид битрейта : Постоянный
    Битрейт : 640 Кбит/сек
    Каналы : 6 каналов
    Расположение каналов : Front: L C R, Side: L R, LFE
    Частота : 48, 0 КГц
    Частота кадров : 31, 250 кадров/сек (1536 SPF)
    Битовая глубина : 16 бит
    Метод сжатия : С потерями
    Размер потока : 637 Мбайт (5%)
    Заголовок : Дубляж
    Язык : Russian
    ServiceKind/String : Complete Main
    Default : Да
    Forced : Нет
    Аудио #2
    Идентификатор : 3
    Формат : AC-3
    Формат/Информация : Audio Coding 3
    Идентификатор кодека : A_AC3
    Продолжительность : 2 ч. 19 м.
    Вид битрейта : Постоянный
    Битрейт : 640 Кбит/сек
    Каналы : 6 каналов
    Расположение каналов : Front: L C R, Side: L R, LFE
    Частота : 48, 0 КГц
    Частота кадров : 31, 250 кадров/сек (1536 SPF)
    Битовая глубина : 16 бит
    Метод сжатия : С потерями
    Размер потока : 637 Мбайт (5%)
    Заголовок : Оригинал
    Язык : English
    ServiceKind/String : Complete Main
    Default : Нет
    Forced : Нет
    Текст #1
    Идентификатор : 4
    Формат : UTF-8
    Идентификатор кодека : S_TEXT/UTF8
    Идентификатор кодека/Информация : UTF-8 Plain Text
    Продолжительность : 2 ч. 18 м.
    Битрейт : 1 бит/сек
    ElementCount : 35
    Размер потока : 1, 63 Кбайт (0%)
    Заголовок : Forced
    Язык : Russian
    Default : Да
    Forced : Да
    Текст #2
    Идентификатор : 5
    Формат : UTF-8
    Идентификатор кодека : S_TEXT/UTF8
    Идентификатор кодека/Информация : UTF-8 Plain Text
    Продолжительность : 2 ч. 8 м.
    Битрейт : 61 бит/сек
    ElementCount : 1144
    Размер потока : 57, 8 Кбайт (0%)
    Заголовок : Full
    Язык : Russian
    Default : Нет
    Forced : Нет
    Текст #3
    Идентификатор : 6
    Формат : UTF-8
    Идентификатор кодека : S_TEXT/UTF8
    Идентификатор кодека/Информация : UTF-8 Plain Text
    Продолжительность : 2 ч. 15 м.
    Битрейт : 36 бит/сек
    ElementCount : 1149
    Размер потока : 35, 9 Кбайт (0%)
    Заголовок : Full
    Язык : English
    Default : Нет
    Forced : Нет
    Меню
    00: 00: 00.000 : : 01. Main Title
    00: 03: 11.524 : : 02. NY Loves Spidey
    00: 04: 39.737 : : 03. It\'s Wonderful
    00: 07: 59.770 : : 04. The Goblin\'s Lair
    00: 08: 33.679 : : 05. Web Love
    00: 10: 30.254 : : 06. Flint Marko
    00: 13: 54.708 : : 07. Give Her This
    00: 16: 55.013 : : 08. Peter vs. Harry
    00: 22: 24.301 : : 09. Marko Atomized
    00: 24: 44.941 : : 10. Some Memory Impairment
    00: 27: 11.546 : : 11. Birth of Sandman
    00: 30: 12.644 : : 12. The Review
    00: 32: 31.240 : : 13. Crane Disaster
    00: 36: 10.334 : : 14. Daily Bugle
    00: 39: 43.964 : : 15. \'nuff Said
    00: 40: 08.489 : : 16. Welcome Home Harry!
    00: 41: 43.209 : : 17. One Critic?
    00: 43: 20.014 : : 18. Key to the City
    00: 44: 43.472 : : 19. Sand Truck
    00: 46: 39.004 : : 20. A Good Show
    00: 49: 24.544 : : 21. Armored Car
    00: 51: 53.151 : : 22. Engagement Dinner
    00: 59: 27.730 : : 23. We Were Wrong
    01: 03: 30.473 : : 24. The Symbiote Strikes
    01: 06: 34.532 : : 25. Bank Robbery
    01: 08: 07.416 : : 26. Subway
    01: 10: 45.823 : : 27. Like a Prison
    01: 13: 50.592 : : 28. Lonely Girl
    01: 15: 23.393 : : 29. Calling a Woman
    01: 16: 42.264 : : 30. A Little Self Deception
    01: 19: 21.715 : : 31. Attack His Heart!
    01: 22: 16.681 : : 32. It\'s Over
    01: 24: 21.347 : : 33. The Other Guy
    01: 27: 08.348 : : 34. Strawberries
    01: 30: 17.787 : : 35. Dirt in Your Eye
    01: 32: 43.474 : : 36. Bad Peter
    01: 35: 14.375 : : 37. Return of the Sandman
    01: 35: 53.497 : : 38. Jazz Club
    01: 40: 46.331 : : 39. the Bell Tower
    01: 44: 15.624 : : 40. Forgive Yourself
    01: 47: 20.225 : : 41. The Team-Up
    01: 49: 10.794 : : 42. City in Crisis
    01: 52: 52.724 : : 43. The Return of Spider-Man
    01: 56: 34.570 : : 44. The Giant Sandman
    01: 59: 57.106 : : 45. Film\'s Extra
    02: 00: 28.346 : : 46. Team-Work
    02: 02: 26.756 : : 47. Spidey vs. Venom
    02: 04: 29.378 : : 48. Sound Cage
    02: 06: 11.313 : : 49. I Didn\'t Want This
    02: 09: 33.474 : : 50. You\'re My Friend
    02: 11: 56.491 : : 51. You or No One
    02: 13: 59.197 : : 52. End Credits


    Онлайн видео Человек-паук 3: Враг в отражении



    Человек-паук 3: Враг в отражении/Spider-Man 3 (2007) BDRip [H.265/1080p] [10-bit]
    Рейтинг →
     (голосов: 1, оценка 5/5, голосовать можно 1 раз )

    Другие торренты по теме:

  • Человек-паук 3: Враг в отражении / Spider-Man 3 (2007) WEB-DL [H.264 / 2160p] скачать через торрент бесплатно
  • Человек-паук 3: Враг в отражении / Spider-Man 3 (2007) BDRip [H.265 / 1080p-LQ]
  • Человек-паук 3: Враг в отражении / Spider-Man 3 (2007) UHD Blu-ray [H.265 / 2160p] [4K, HDR, 10-bit]
  • Человек-паук 3: Враг в отражении / Spider-Man 3 (2007) HDRip [H.264] [MP4|1280x534]
  • Человек-паук 3: Враг в отражении / Spider-Man 3 (2007) HDRip [H.264] [MP4|1920x800]
  • Джим Берд | Человек-Паук: Заклятый враг (2019) [FB2]


    • Комментарии (0):

      Информация

      Информация

        Посетители, находящиеся в группе Гости, не могут оставлять комментарии в данной новости.

        ↓ Меню




        ↓ Опрос

        Вы добавили сайт в закладки?
        Да
        Нет


        Популярное