.
Авторизация | Регистрация
bitok.xyz
» » Премия (1974) TVRip торрент скачать бесплатно


    Премия (1974) TVRip торрент скачать бесплатно

    Дата: 30-12-2019, 05:00 | .torrent скачали: 0

    Премия (1974) TVRipПроизводство: СССР/Киностудия Ленфильм, Первое творческое объединение
    Жанр: Драма
    Режиссер: Сергей Микаэлян

    Актеры
    Евгений Леонов, Владимир Самойлов, Олег Янковский, Михаил Глузский, Армен Джигарханян, Нина Ургант, Виктор Сергачёв, Леонид Дьячков, Борислав Брондуков, Светлана Крючкова, Александр Пашутин, Михаил Семёнов

    Описание

    Действие фильма разворачивается в течение полутора-двух часов в одной комнате, где проходит не совсем обычное заседание парткома строительного треста. В повестке дня — отказ целой бригады строителей от премии за липовые трудовые достижения!

    Возраст: 12+ (зрителям, достигшим 12 лет)
    Продолжительность: 01: 24: 09
    Качество видео: TVRip
    Субтитры: Отсутствуют
    Видео: Xvid, 656x496, 25 fps, ~2125 kbps
    Аудио: MP3, 2 ch, 192 kbps
    Общее
    Полное имя : F: TorrentsПремияPremija.avi
    Формат : AVI
    Формат/Информация : Audio Video Interleave
    Размер файла : 1, 37 Гбайт
    Продолжительность : 1 ч. 24 м.
    Общий поток : 2328 Кбит/сек
    Программа кодирования : VirtualDubModRus 1.5.10.2 (build 2542/release)
    Библиотека кодирования : VirtualDubMod build 2542/release
    Видео
    Идентификатор : 0
    Формат : MPEG-4 Visual
    Профиль формата : Advanced Simple@L5
    Настройки формата : BVOP2
    Параметр BVOP формата : 2
    Параметр QPel формата : Нет
    Параметр GMC формата : Без точки перехода
    Параметр матрицы формата : Default (MPEG)
    Режим смешивания : Сжатый битовый поток
    Идентификатор кодека : XVID
    Идентификатор кодека/Подсказка : XviD
    Продолжительность : 1 ч. 24 м.
    Битрейт : 2126 Кбит/сек
    Ширина : 656 пикселей
    Высота : 496 пикселей
    Соотношение сторон : 4: 3
    Частота кадров : 25, 000 кадров/сек
    Цветовое пространство : YUV
    Субдискретизация насыщенности : 4: 2: 0
    Битовая глубина : 8 бит
    Тип развёртки : Прогрессивная
    Метод сжатия : С потерями
    Бит/(Пиксели*Кадры) : 0.261
    Размер потока : 1, 25 Гбайт (91%)
    Библиотека кодирования : XviD 64
    Аудио
    Идентификатор : 1
    Формат : MPEG Audio
    Версия формата : Version 1
    Профиль формата : Layer 3
    Настройки формата : Joint stereo/MS Stereo
    Идентификатор кодека : 55
    Идентификатор кодека/Подсказка : MP3
    Продолжительность : 1 ч. 24 м.
    Вид битрейта : Постоянный
    Битрейт : 192 Кбит/сек
    Каналы : 2 канала
    Частота : 48, 0 КГц
    Частота кадров : 41, 667 кадра/сек (1152 SPF)
    Метод сжатия : С потерями
    Размер потока : 116 Мбайт (8%)
    Выравнивание : Соединение по промежуткам
    Продолжительность промежутка : 40 мс. (1, 00 видеокадр)
    Время предзагрузки промежутка : 504 мс.
    Библиотека кодирования : LAME3.97
    Настройки программы : -m j -V 4 -q 0 -b 192

    Скриншоты для ознакомления



    Все одноименные релизы в Клубе
    Время раздачи: 24/7 (до появления первых 3-5 скачавших)

    Премия (1974) TVRip
    Рейтинг →
     (голосов: 1, оценка 5/5, голосовать можно 1 раз )

    Другие торренты по теме:

  • Михаил Задорнов. Неформат 74. Элтон Джон с Путиным, шнобелевская премия, пенсии (2015.09.18) WEB-DLRip [H.264 / 720p-LQ] скачать через торрент бесплатно
  • Михаил Задорнов. Неформат 74. Элтон Джон с Путиным, шнобелевская премия, пенсии (2015.09.18) WEBRip скачать через торрент бесплатно
  • 67-я премия «Эмми» / Main Emmys Awards Show (2015) HDTV [H.264 / 1080i-LQ] скачать через торрент бесплатно
  • Первая Российская национальная музыкальная премия (2015) HDTVi скачать через торрент бесплатно
  • Книжная серия | Нобелевская премия [60 книг] (2008-2014) [FB2] скачать через торрент бесплатно
  • Пьер Гамарра | Убийце - Гонкуровская премия (2014) [MP3]
  • Андреас Эшбах | Нобелевская премия (2014) [MP3]
  • Александр Горохов | Премия за убийцу (2018) [MP3]


    • Комментарии (0):

      Информация

      Информация

        Посетители, находящиеся в группе Гости, не могут оставлять комментарии в данной новости.

        ↓ Меню




        ↓ Опрос

        Вы добавили сайт в закладки?
        Да
        Нет


        Популярное