.
Авторизация | Регистрация
bitok.xyz
» » Чародеи (1982) HDTVRip [H.264 / 720p-LQ] [2 серии] торрент скачать бесплатно


    Чародеи (1982) HDTVRip [H.264 / 720p-LQ] [2 серии] торрент скачать бесплатно

    Дата: 30-12-2019, 05:00 | .torrent скачали: 2

    Чародеи (1982) HDTVRip [H.264 / 720p-LQ] [2 серии]Производство: СССР/Гостелерадио, Одесская киностудия
    Жанр: мюзикл, фантастика, мелодрама, комедия
    Режиссер: Константин Бромберг

    Актеры
    Александра Яковлева, Александр Абдулов, Екатерина Васильева, Валентин Гафт, Семён Фарада, Валерий Золотухин, Эммануил Виторган, Михаил Светин, Роман Филиппов, Анна Ашимова, Евгений Весник, Евгения Абрамова, Ирина Бельгер, Валентина Смоляницкая, Лилия Макеева

    Описание

    Новогодняя сказка о том, что настоящая любовь может творить чудеса. В институте НУИНУ (научный универсальный институт необыкновенных услуг) кипит бурная работа по изготовлению волшебной палочки. Презентация изобретения намечена на 31 декабря, в Новогодний вечер. Но тут в дело вступают противники директора института, преследующие свои цели…

    Возраст: 0+ (для любой зрительской аудитории)
    Продолжительность: 01: 10: 20 + 01: 16: 14
    Качество видео: HDTVRip 720p
    Субтитры: отсутствуют
    Видео: AVC/H.264, 958x704, ~4552 kbps
    Аудио: AC3, 2 ch, 192 kbps
    1 серия
    Общее
    Уникальный идентификатор : 201767713256480283888733265883240139400 (0x97CB0C4EC83700E6A534B0C16E310A88)
    Полное имя : D: FILMSZALIVCharodei_1982.HDTVRip.720pЧародеи 1с.mkv
    Формат : Matroska
    Версия формата : Version 2
    Размер файла : 2, 38 Гбайт
    Продолжительность : 1 ч. 10 м.
    Общий поток : 4841 Кбит/сек
    Название фильма : Чародеи_1982-HDTVRip 720p_KORSAR
    Дата кодирования : UTC 2018-01-11 02: 53: 57
    Программа кодирования : mkvmerge v5.8.0 (\'No Sleep/Pillow\') built on Sep 2 2012 15: 37: 04
    Библиотека кодирования : libebml v1.2.3 + libmatroska v1.3.0
    Видео
    Идентификатор : 1
    Формат : AVC
    Формат/Информация : Advanced Video Codec
    Профиль формата : High@L4.1
    Настройки формата : CABAC/12 Ref Frames
    Параметр CABAC формата : Да
    Параметр RefFrames формата : 12 кадров
    Идентификатор кодека : V_MPEG4/ISO/AVC
    Продолжительность : 1 ч. 10 м.
    Битрейт : 4552 Кбит/сек
    Ширина : 958 пикселей
    Высота : 704 пикселя
    Соотношение сторон : 4: 3
    Режим частоты кадров : Постоянный
    Частота кадров : 25, 000 кадров/сек
    Цветовое пространство : YUV
    Субдискретизация насыщенности : 4: 2: 0
    Битовая глубина : 8 бит
    Тип развёртки : Прогрессивная
    Бит/(Пиксели*Кадры) : 0.270
    Размер потока : 2, 24 Гбайт (94%)
    Библиотека кодирования : x264 core 148 r2744kMod b97ae06
    Настройки программы : cabac=1/ref=12/deblock=1: -2: -1/analyse=0x3: 0x113/me=umh/subme=10/psy=1/fade_compensate=0.00/psy_rd=1.05: 0.10/mixed_ref=1/me_range=32/chroma_me=1/trellis=2/8x8dct=1/cqm=0/deadzone=21, 11/fast_pskip=1/chroma_qp_offset=-3/threads=12/lookahead_threads=3/sliced_threads=0/nr=0/decimate=1/interlaced=0/bluray_compat=0/constrained_intra=0/bframes=10/b_pyramid=2/b_adapt=2/b_bias=0/direct=1/weightb=1/open_gop=0/weightp=2/keyint=250/keyint_min=25/scenecut=40/intra_refresh=0/rc_lookahead=40/rc=crf/mbtree=0/crf=17.8000/qcomp=0.63/qpmin=0/qpmax=39/qpstep=4/vbv_maxrate=50000/vbv_bufsize=62500/crf_max=0.0/nal_hrd=none/filler=0/ip_ratio=1.40/pb_ratio=1.30/aq=2: 0.90
    Язык : English
    Default : Да
    Forced : Нет
    Цветовой диапазон : Limited
    Основные цвета : BT.709
    Характеристики трансфера : BT.709
    Коэффициенты матрицы : BT.709
    Аудио
    Идентификатор : 2
    Формат : AC-3
    Формат/Информация : Audio Coding 3
    Коммерческое название : Dolby Digital
    Идентификатор кодека : A_AC3
    Продолжительность : 1 ч. 10 м.
    Вид битрейта : Постоянный
    Битрейт : 192 Кбит/сек
    Каналы : 2 канала
    ChannelLayout : L R
    Частота : 48, 0 КГц
    Частота кадров : 31, 250 кадров/сек (1536 SPF)
    Метод сжатия : С потерями
    Размер потока : 96, 6 Мбайт (4%)
    Язык : Russian
    ServiceKind/String : Complete Main
    Default : Да
    Forced : Нет
    2 серия
    Общее
    Уникальный идентификатор : 173196283110214606549420325336878047440 (0x824C640ACDC6EB6088041192B8EA60D0)
    Полное имя : D: FILMSZALIVCharodei_1982.HDTVRip.720pЧародеи 2с.mkv
    Формат : Matroska
    Версия формата : Version 2
    Размер файла : 2, 69 Гбайт
    Продолжительность : 1 ч. 16 м.
    Общий поток : 5047 Кбит/сек
    Название фильма : Чародеи_1982-HDTVRip 720p_KORSAR
    Дата кодирования : UTC 2018-01-11 02: 55: 57
    Программа кодирования : mkvmerge v5.8.0 (\'No Sleep/Pillow\') built on Sep 2 2012 15: 37: 04
    Библиотека кодирования : libebml v1.2.3 + libmatroska v1.3.0
    Видео
    Идентификатор : 1
    Формат : AVC
    Формат/Информация : Advanced Video Codec
    Профиль формата : High@L4.1
    Настройки формата : CABAC/12 Ref Frames
    Параметр CABAC формата : Да
    Параметр RefFrames формата : 12 кадров
    Идентификатор кодека : V_MPEG4/ISO/AVC
    Продолжительность : 1 ч. 16 м.
    Битрейт : 4754 Кбит/сек
    Ширина : 958 пикселей
    Высота : 704 пикселя
    Соотношение сторон : 4: 3
    Режим частоты кадров : Постоянный
    Частота кадров : 25, 000 кадров/сек
    Цветовое пространство : YUV
    Субдискретизация насыщенности : 4: 2: 0
    Битовая глубина : 8 бит
    Тип развёртки : Прогрессивная
    Бит/(Пиксели*Кадры) : 0.282
    Размер потока : 2, 53 Гбайт (94%)
    Библиотека кодирования : x264 core 148 r2744kMod b97ae06
    Настройки программы : cabac=1/ref=12/deblock=1: -2: -1/analyse=0x3: 0x113/me=umh/subme=10/psy=1/fade_compensate=0.00/psy_rd=1.05: 0.10/mixed_ref=1/me_range=32/chroma_me=1/trellis=2/8x8dct=1/cqm=0/deadzone=21, 11/fast_pskip=1/chroma_qp_offset=-3/threads=12/lookahead_threads=3/sliced_threads=0/nr=0/decimate=1/interlaced=0/bluray_compat=0/constrained_intra=0/bframes=10/b_pyramid=2/b_adapt=2/b_bias=0/direct=1/weightb=1/open_gop=0/weightp=2/keyint=250/keyint_min=25/scenecut=40/intra_refresh=0/rc_lookahead=40/rc=crf/mbtree=0/crf=17.8000/qcomp=0.63/qpmin=0/qpmax=39/qpstep=4/vbv_maxrate=50000/vbv_bufsize=62500/crf_max=0.0/nal_hrd=none/filler=0/ip_ratio=1.40/pb_ratio=1.30/aq=2: 0.90
    Язык : English
    Default : Да
    Forced : Нет
    Цветовой диапазон : Limited
    Основные цвета : BT.709
    Характеристики трансфера : BT.709
    Коэффициенты матрицы : BT.709
    Аудио
    Идентификатор : 2
    Формат : AC-3
    Формат/Информация : Audio Coding 3
    Коммерческое название : Dolby Digital
    Идентификатор кодека : A_AC3
    Продолжительность : 1 ч. 16 м.
    Вид битрейта : Постоянный
    Битрейт : 192 Кбит/сек
    Каналы : 2 канала
    ChannelLayout : L R
    Частота : 48, 0 КГц
    Частота кадров : 31, 250 кадров/сек (1536 SPF)
    Метод сжатия : С потерями
    Размер потока : 105 Мбайт (4%)
    Язык : Russian
    ServiceKind/String : Complete Main
    Default : Да
    Forced : Нет

    Скриншоты для ознакомления



    Все одноименные релизы в Клубе
    Время раздачи: с 5 до 19 мск (до появления первых 3-5 скачавших)

    Онлайн видео Чародеи (1982) HDTVRip [H.264



    Чародеи (1982) HDTVRip [H.264/720p-LQ] [2 серии]
    Рейтинг →
     (голосов: 1, оценка 4/5, голосовать можно 1 раз )

    Другие торренты по теме:

  • Чародеи (1982) HDTVRip [H.264] [2 серии]


    • Комментарии (0):

      Информация

      Информация

        Посетители, находящиеся в группе Гости, не могут оставлять комментарии в данной новости.

        ↓ Меню




        ↓ Опрос

        Вы добавили сайт в закладки?
        Да
        Нет


        Популярное