.
Авторизация | Регистрация
bitok.xyz
» » Маленький гигант большого секса (1992) BDRip [H.264] [Реставрация КП] торрент скачать бесплатно


    Маленький гигант большого секса (1992) BDRip [H.264] [Реставрация КП] торрент скачать бесплатно

    Дата: 30-12-2019, 05:00 | .torrent скачали: 6

    Маленький гигант большого секса (1992) BDRip [H.264] [Реставрация КП]Производство: Россия/Круг, Мосфильм
    Жанр: комедия
    Режиссер: Николай Досталь
    Продюсер: Владимир Клименко

    Актеры
    Геннадий Хазанов, Зоя Буряк, Татьяна Чепикова, Оксана Калиберда, Николай Карнаухов, Владимир Кашпур, Александр Берда, Валерий Хромушкин, Ирэна Кокрятская, Галина Кулагина

    Описание

    По мотивам повести Ф. Искандера О, Марат!. Герой фильма живет в курортном городе на берегу Черного моря и работает фотографом на пляже. Ни одна женщина не может устоять перед его неотразимым обаянием. Но все-таки однажды он потерпел фиаско…

    Возраст: 12+ (зрителям, достигшим 12 лет)
    Релиз от: MAG3131
    Продолжительность: 01: 22: 00
    Качество видео: BDRip
    Перевод: Не требуется (BD RUS)
    Субтитры: Отсутствуют
    Видео: AVC/H.264, 760x576, ~1936 kbps
    Аудио: AC3, 6 ch, 448 kbpsYouTube
    -Information 29.12.2019 1: 18: 32 x264 info: frame I: 670 Avg QP: 15.12 size: 74158
    -Information 29.12.2019 1: 18: 32 x264 info: frame P: 26131 Avg QP: 18.11 size: 23411
    -Information 29.12.2019 1: 18: 32 x264 info: frame B: 91161 Avg QP: 20.14 size: 5801

    Общее
    Уникальный идентификатор : 313259818699458267873475010520996575218 (0xEBABA58260C44883563C6F305F76F7F2)
    Полное имя : A.Small.Giant.Of.Big.Sex.1992.BDRip.RUS.RKP.MAG3131.mkv
    Формат : Matroska
    Версия формата : Version 2
    Размер файла : 1, 37 Гбайт
    Продолжительность : 1 ч. 21 м.
    Общий поток : 2385 Кбит/сек
    Название фильма : Маленький гигант большого секса (MAG3131)
    Дата кодирования : UTC 2019-12-29 05: 00: 42
    Программа кодирования : mkvmerge v41.0.0 (\'Smarra\') 64-bit
    Библиотека кодирования : libebml v1.3.9 + libmatroska v1.5.2
    Attachments : Лог кодирования.log
    Видео
    Идентификатор : 1
    Формат : AVC
    Формат/Информация : Advanced Video Codec
    Профиль формата : High@L4.1
    Настройки формата : CABAC/12 Ref Frames
    Параметр CABAC формата : Да
    Параметр RefFrames формата : 12 кадров
    Идентификатор кодека : V_MPEG4/ISO/AVC
    Продолжительность : 1 ч. 22 м.
    Битрейт : 1936 Кбит/сек
    Ширина : 760 пикселей
    Высота : 576 пикселей
    Соотношение сторон : 4: 3
    Режим частоты кадров : Постоянный
    Частота кадров : 23, 976 (24000/1001) кадра/сек
    Цветовое пространство : YUV
    Субдискретизация насыщенности : 4: 2: 0
    Битовая глубина : 8 бит
    Тип развёртки : Прогрессивная
    Бит/(Пиксели*Кадры) : 0.184
    Размер потока : 1, 08 Гбайт (79%)
    Заголовок : Маленький гигант большого секса
    Библиотека кодирования : x264 core 157 r2935 545de2f
    Настройки программы : cabac=1/ref=12/deblock=1: -1: -1/analyse=0x3: 0x133/me=umh/subme=11/psy=1/psy_rd=1.00: 0.15/mixed_ref=1/me_range=64/chroma_me=1/trellis=2/8x8dct=1/cqm=0/deadzone=21, 11/fast_pskip=0/chroma_qp_offset=-3/threads=6/lookahead_threads=1/sliced_threads=0/nr=0/decimate=0/interlaced=0/bluray_compat=0/constrained_intra=0/bframes=16/b_pyramid=2/b_adapt=2/b_bias=0/direct=3/weightb=1/open_gop=0/weightp=2/keyint=240/keyint_min=23/scenecut=40/intra_refresh=0/rc_lookahead=60/rc=2pass/mbtree=0/bitrate=1936/ratetol=1.0/qcomp=0.60/qpmin=0/qpmax=69/qpstep=4/cplxblur=20.0/qblur=0.5/vbv_maxrate=50000/vbv_bufsize=62500/nal_hrd=none/filler=0/ip_ratio=1.40/pb_ratio=1.30/aq=1: 1.00
    Язык : Russian
    Default : Да
    Forced : Нет
    Аудио
    Идентификатор : 2
    Формат : AC-3
    Формат/Информация : Audio Coding 3
    Коммерческое название : Dolby Digital
    Идентификатор кодека : A_AC3
    Продолжительность : 1 ч. 21 м.
    Вид битрейта : Постоянный
    Битрейт : 448 Кбит/сек
    Каналы : 6 каналов
    ChannelLayout : L R C LFE Ls Rs
    Частота : 48, 0 КГц
    Частота кадров : 31, 250 кадров/сек (1536 SPF)
    Метод сжатия : С потерями
    Размер потока : 263 Мбайт (19%)
    Заголовок : Оригинал (AC-3, Постоянный, 448 Кбит/сек, 6 каналов, 48, 0 КГц, 16 бит)
    Язык : Russian
    ServiceKind/String : Complete Main
    Default : Да
    Forced : Нет
    Меню
    00: 00: 00.000 : : Глава 01
    00: 07: 56.142 : : Глава 02
    00: 15: 57.290 : : Глава 03
    00: 21: 06.265 : : Глава 04
    00: 28: 35.464 : : Глава 05
    00: 33: 13.074 : : Глава 06
    00: 42: 12.405 : : Глава 07
    00: 49: 35.764 : : Глава 08
    00: 58: 00.143 : : Глава 09
    01: 12: 24.715 : : Глава 10
    01: 18: 32.041 : : Глава 11

    Скриншоты для ознакомления



    Все одноименные релизы в Клубе
    Время раздачи: 24/7 до первых 10 скачавших, потом ухожу с раздачи

    Онлайн видео Чародеи (1982) HDTVRip [H.264



    Маленький гигант большого секса (1992) BDRip [H.264] [Реставрация КП]
    Рейтинг →
     (голосов: 1, оценка 4/5, голосовать можно 1 раз )

    Другие торренты по теме:

  • NGW: Маленький гигант / Little giant (2015) HDTV [H.264 / 1080i-LQ]


    • Комментарии (0):

      Информация

      Информация

        Посетители, находящиеся в группе Гости, не могут оставлять комментарии в данной новости.

        ↓ Меню




        ↓ Опрос

        Вы добавили сайт в закладки?
        Да
        Нет


        Популярное

        Полицейский с Рублёвки. Новогодний беспредел 2 (2019) CamRip [AD]

        (скачиваний: 2276)
        Властелин колец: Трилогия / The Lord of the Rings: Trilogy (2001,2002,2003) BDRip [H.264] [Extended Editions] скачать через торрент бесплатно

        (скачиваний: 672)
        Властелин колец / The Lord of the Rings (2001,2002,2003) BDRip [Extended Edition] [H.264 / 1080p-LQ] [Hi10P]

        (скачиваний: 661)
        Начало / Inception (2010) BDRip [H.265 / 1080p]

        (скачиваний: 642)
        Властелин колец / The Lord of the Rings (2001,2002,2003) BDRip [1080p] [Extended Edition] [Трилогия]

        (скачиваний: 608)
        Квартирник НТВ у Маргулиса. Новогодний выпуск (31.12.2019) WEB-DL [H.264 / 1080p-LQ]

        (скачиваний: 456)
        Каникулы off-line (2018) WEBRip

        (скачиваний: 438)
        Хоббит: Трилогия / The Hobbit: Trilogy (2012, 2013, 2014) BDRip [H.265 / 1080p-LQ] [10-bit] [Расширенная версия]

        (скачиваний: 398)
        Властелин колец / The Lord of the Rings (2001,2002,2003) BDRip [1080p] [Extended Edition] [Трилогия] скачать через торрент бесплатно

        (скачиваний: 277)
        Во все тяжкие / Breaking Bad (2008-2013) BDRip [H.264 / 1080p] (сезон 1-5, серии 1-62 из 62) Кубик в Кубе, LostFilm скачать через торрент бесплатно

        (скачиваний: 256)