.
Авторизация | Регистрация
bitok.xyz
» » Жажда золота / La soif de lor / Thirst for Gold (1993) DVDRemux торрент скачать бесплатно


    Жажда золота / La soif de lor / Thirst for Gold (1993) DVDRemux торрент скачать бесплатно

    Дата: 30-12-2019, 05:00 | .torrent скачали: 0

    Жажда золота / La soif de lor / Thirst for Gold (1993) DVDRemuxПроизводство: Франция/Gaumont, G. Films, TF1 Films Production
    Жанр: комедия, криминал, приключения
    Режиссер: Жерар Ури
    Продюсер: Ален Пуаре

    Актеры
    Кристиан Клавье, Цилла Шелтон, Катрин Жакоб, Филипп Хорсан, Марина Дельтерм, Паскаль Греггори, Бернард Хэллер, Жаки Нерсесян, Ду, Альбер Дрэ

    Описание

    Для того, чтобы вывезти контрабандой в Швейцарию золотые слитки на сумму 6 миллиардов франков, мсье Юрбэн Донадье придумал весьма оригинальный способ — он спрятал их в стенах своего домика, который должен был сыграть роль чемодана с двойным дном.
    Его жена Флоретта узнала об этом и, так как Юрбэн не желал делиться честно нажитым богатством, она принялась за дело по-своему.

    Возраст: 16+ (зрителям, достигшим 16 лет)
    Релиз от: Chernobyl
    Продолжительность: 01: 21: 16
    Качество видео: DVDRemux
    Перевод: Многоголосый профессиональный
    Язык озвучки: Русский, украинский, французский
    Субтитры: Русские (Синема Престиж)
    Навигация по главам (чаптеры): Есть (подписаны как на исходном DVD)
    Видео: MPEG-2, 720x576@1024x576, 25.000 fps, ~5902 kbps
    Аудио 1: AC3, 2 ch, 192 kbps - Русский | MVO ОРТ Селена Интернешнл
    Аудио 2: AC3, 2 ch, 192 kbps - Русский | MVO студия Кипарис по заказу ТВЦ
    Аудио 3: AC3, 2 ch, 192 kbps - Русский | MVO Россия/РТР запись 2003 года
    Аудио 4: AC3, 2 ch, 192 kbps - Русский | MVO Синема Престиж
    Аудио 5: AC3, 2 ch, 192 kbps - Украинский | MVO ICTV
    Аудио 6: AC3, 2 ch, 192 kbps - Французский | Оригинал
    Уникальный идентификатор : 142184970614387557695438495214109881170 (0x6AF7D44A0B0356F548A1734916567352)
    Полное имя : La soif de l\'or (1993) DVDRemux.mkv
    Формат : Matroska
    Версия формата : Version 4/Version 2
    Размер файла : 4, 01 Гбайт
    Продолжительность : 1 ч. 21 м.
    Режим общего битрейта : Переменный
    Общий поток : 7060 Кбит/сек
    Дата кодирования : UTC 2019-12-29 09: 56: 21
    Программа кодирования : mkvmerge v41.0.0 (\'Smarra\') 64-bit
    Библиотека кодирования : libebml v1.3.9 + libmatroska v1.5.2
    Видео
    Идентификатор : 1
    Формат : MPEG Video
    Версия формата : Version 2
    Профиль формата : Main@Main
    Настройки формата : CustomMatrix/BVOP
    Параметр BVOP формата : Да
    Параметр матрицы формата : Выборочная
    Параметр GOP формата : M=3, N=12
    Структура изображения : Frame
    Идентификатор кодека : V_MPEG2
    Идентификатор кодека/Информация : MPEG 1 or 2 Video
    Продолжительность : 1 ч. 21 м.
    Вид битрейта : Переменный
    Битрейт : 5902 Кбит/сек
    Максимальный битрейт : 8700 Кбит/сек
    Ширина : 720 пикселей
    Высота : 576 пикселей
    Соотношение сторон : 16: 9
    Режим частоты кадров : Постоянный
    Частота кадров : 25, 000 кадров/сек
    Стандарт вещания : PAL
    Цветовое пространство : YUV
    Субдискретизация насыщенности : 4: 2: 0
    Битовая глубина : 8 бит
    Тип развёртки : Чересстрочная
    Порядок развёртки : Верхнее поле первое
    Метод сжатия : С потерями
    Бит/(Пиксели*Кадры) : 0.569
    Временной код первого кадра : 00: 00: 00: 00
    Оригинал временного кода : Group of pictures t_head
    GOP, открыто/закрыто : Открыто
    GOP, открыто/закрыто на первом кадре : Закрыто
    Размер потока : 3, 35 Гбайт (84%)
    Заголовок : La soif de l\'or (1993)
    Язык : French
    Default : Да
    Forced : Да
    Аудио #1
    Идентификатор : 2
    Формат : AC-3
    Формат/Информация : Audio Coding 3
    Коммерческое название : Dolby Digital
    Идентификатор кодека : A_AC3
    Продолжительность : 1 ч. 21 м.
    Вид битрейта : Постоянный
    Битрейт : 192 Кбит/сек
    Каналы : 2 канала
    Channel layout : L R
    Частота : 48, 0 КГц
    Частота кадров : 31, 250 кадров/сек (1536 SPF)
    Битовая глубина : 16 бит
    Метод сжатия : С потерями
    Размер потока : 112 Мбайт (3%)
    Заголовок : MVO ОРТ Селена Интернешнл
    Язык : Russian
    ServiceKind/String : Complete Main
    Default : Да
    Forced : Нет
    Аудио #2
    Идентификатор : 3
    Формат : AC-3
    Формат/Информация : Audio Coding 3
    Коммерческое название : Dolby Digital
    Идентификатор кодека : A_AC3
    Продолжительность : 1 ч. 21 м.
    Вид битрейта : Постоянный
    Битрейт : 192 Кбит/сек
    Каналы : 2 канала
    Channel layout : L R
    Частота : 48, 0 КГц
    Частота кадров : 31, 250 кадров/сек (1536 SPF)
    Битовая глубина : 16 бит
    Метод сжатия : С потерями
    Размер потока : 112 Мбайт (3%)
    Заголовок : MVO студия Кипарис по заказу ТВЦ при техническом содействии Киностудии им. Горького
    Язык : Russian
    ServiceKind/String : Complete Main
    Default : Нет
    Forced : Нет
    Аудио #3
    Идентификатор : 4
    Формат : AC-3
    Формат/Информация : Audio Coding 3
    Коммерческое название : Dolby Digital
    Идентификатор кодека : A_AC3
    Продолжительность : 1 ч. 21 м.
    Вид битрейта : Постоянный
    Битрейт : 192 Кбит/сек
    Каналы : 2 канала
    Channel layout : L R
    Частота : 48, 0 КГц
    Частота кадров : 31, 250 кадров/сек (1536 SPF)
    Битовая глубина : 16 бит
    Метод сжатия : С потерями
    Размер потока : 112 Мбайт (3%)
    Заголовок : MVO Россия/РТР запись 2003 года
    Язык : Russian
    ServiceKind/String : Complete Main
    Default : Нет
    Forced : Нет
    Аудио #4
    Идентификатор : 5
    Формат : AC-3
    Формат/Информация : Audio Coding 3
    Коммерческое название : Dolby Digital
    Идентификатор кодека : A_AC3
    Продолжительность : 1 ч. 21 м.
    Вид битрейта : Постоянный
    Битрейт : 192 Кбит/сек
    Каналы : 2 канала
    Channel layout : L R
    Частота : 48, 0 КГц
    Частота кадров : 31, 250 кадров/сек (1536 SPF)
    Битовая глубина : 16 бит
    Метод сжатия : С потерями
    Размер потока : 112 Мбайт (3%)
    Заголовок : MVO Синема Престиж
    Язык : Russian
    ServiceKind/String : Complete Main
    Default : Нет
    Forced : Нет
    Аудио #5
    Идентификатор : 6
    Формат : AC-3
    Формат/Информация : Audio Coding 3
    Коммерческое название : Dolby Digital
    Идентификатор кодека : A_AC3
    Продолжительность : 1 ч. 21 м.
    Вид битрейта : Постоянный
    Битрейт : 192 Кбит/сек
    Каналы : 2 канала
    Channel layout : L R
    Частота : 48, 0 КГц
    Частота кадров : 31, 250 кадров/сек (1536 SPF)
    Битовая глубина : 16 бит
    Метод сжатия : С потерями
    Размер потока : 112 Мбайт (3%)
    Заголовок : MVO ICTV
    Язык : Ukrainian
    ServiceKind/String : Complete Main
    Default : Нет
    Forced : Нет
    Аудио #6
    Идентификатор : 7
    Формат : AC-3
    Формат/Информация : Audio Coding 3
    Коммерческое название : Dolby Digital
    Идентификатор кодека : A_AC3
    Продолжительность : 1 ч. 21 м.
    Вид битрейта : Постоянный
    Битрейт : 192 Кбит/сек
    Каналы : 2 канала
    Channel layout : L R
    Частота : 48, 0 КГц
    Частота кадров : 31, 250 кадров/сек (1536 SPF)
    Битовая глубина : 16 бит
    Метод сжатия : С потерями
    Размер потока : 112 Мбайт (3%)
    Заголовок : Original
    Язык : French
    ServiceKind/String : Complete Main
    Default : Нет
    Forced : Нет
    Текст
    Идентификатор : 8
    Формат : UTF-8
    Идентификатор кодека : S_TEXT/UTF8
    Идентификатор кодека/Информация : UTF-8 Plain Text
    Продолжительность : 1 ч. 19 м.
    Битрейт : 100 бит/сек
    ElementCount : 984
    Размер потока : 58, 3 Кбайт (0%)
    Заголовок : Синема Престиж
    Язык : Russian
    Default : Нет
    Forced : Нет
    Меню
    00: 00: 00.000 : ru: Chapter 1
    00: 01: 42.720 : ru: Chapter 2
    00: 04: 25.920 : ru: Chapter 3
    00: 07: 59.520 : ru: Chapter 4
    00: 16: 34.560 : ru: Chapter 5
    00: 21: 03.840 : ru: Chapter 6
    00: 27: 35.520 : ru: Chapter 7
    00: 32: 49.440 : ru: Chapter 8
    00: 42: 57.120 : ru: Chapter 9
    00: 48: 22.080 : ru: Chapter 10
    00: 53: 49.440 : ru: Chapter 11
    00: 57: 07.680 : ru: Chapter 12
    01: 05: 04.320 : ru: Chapter 13
    01: 07: 21.120 : ru: Chapter 14
    01: 16: 05.760 : ru: Chapter 15
    01: 18: 52.800 : ru: Chapter 16

    Скриншоты для ознакомления



    Все одноименные релизы в Клубе
    Время раздачи: 24/7 (до появления первых 3-5 скачавших)

    Онлайн видео Жажда золота



    Жажда золота/La soif de lor/Thirst for Gold (1993) DVDRemux
    Рейтинг →
     (голосов: 1, оценка 4/5, голосовать можно 1 раз )

    Другие торренты по теме:

  • VA - Жажда Скорости. Полный Драйв (2015) [MP3|320 кб / с]<Dance, Club, House> скачать через торрент бесплатно
  • Жажда мести / Khoon Bhari Mang (1988) DVD9 скачать через торрент бесплатно
  • VA - Новая Жажда Скорости Без Тормозов vol.2 (2015) [MP3|320 кб / с]<Club, Hardstyle> скачать через торрент бесплатно
  • Need for Speed: Жажда скорости / Need for Speed (2014) HDRip [AVO] скачать через торрент бесплатно
  • VA - Жажда скорости танцевальный ритм (2016) [MP3|256-320 кб / с] <Pop>
  • Need for Speed: Жажда скорости / Need for Speed (2014) BDRip [H.264 / 1080p]
  • VA - Русская жажда скорости (2016) [MP3|256-320 кб / с] <Pop>
  • VA - Новая Жажда Скорости Без Тормозов vol.3 (2016) [MP3|320 кб / с] <Hardstyle>


    • Комментарии (0):

      Информация

      Информация

        Посетители, находящиеся в группе Гости, не могут оставлять комментарии в данной новости.

        ↓ Меню




        ↓ Опрос

        Вы добавили сайт в закладки?
        Да
        Нет


        Популярное